Dough-nut's Town's Map
Plus-Tech Squeeze Box

EXTREME

Level: 7
BPM: 136
Notes: 554

1
口口口口 |----|
口口口口 |----|
口口口口 |----|
口口口口 |----|
2
口口口口 |----|
口口口口 |----|
口口口口 |----|
口口口口 |----|
3
③口口⑥ |①---|
②④⑤② |②---|
口①①口 |③-④⑤|
②口口② |-⑥--|
4
口口口口 |①--②|
①口口① |----|
口口口口
口②②口

口口口口
口口口口
口口口口 |----|
口③③口 |--③-|
5
口⑤③口 |①-②-|
口①①口 |③④-⑤|
口②④口
口口口口

口口口口
⑧口口口
口⑦口口 |----|
口口⑥口 |-⑥⑦⑧|
6
⑤口①⑤ |①---|
口④④口 |②③-④|
⑤口口⑤ |⑤---|
②口口③ |----|
7
③口口⑥ |①---|
②④⑤② |②---|
口①①口 |③-④⑤|
②口口② |-⑥--|
8
口口口口 |①②③④|
①口口③ |----|
口口口口 |----|
口④②口 |----|
9
口口口② |①---|
口口③口 |②--③|
口口口口
①口口①

口⑨⑨口
口口口⑤
口④口⑥ |④⑤⑥⑦|
⑧口口⑦ |⑧-⑨-|
10
口⑦口⑦ |①②-③|
①口⑥口 |④⑤⑥-|
②⑦⑤⑦ |⑦---|
口③④口 |----|
11
⑨⑩⑪口 |①②-③|
⑧①③⑧ |④-⑤-|
②⑤⑤④ |⑥⑦-⑧|
⑥⑦⑦⑥ |-⑨⑩⑪|
12
⑩⑦⑦① |①-②③|
⑥⑨⑤⑥ |④-⑤-|
⑧口口⑧ |⑥⑦-⑧|
口④③② |-⑨⑩-|
13
口口口口 |①-②-|
口口①② |③④⑤⑥|
口口③口
口⑥⑤④

⑩口口口
⑨⑪⑪口
⑧口口口 |⑦⑧⑨⑩|
⑦口口口 |⑪---|
14
④口口② |①-②-|
⑤口⑤口 |③-④-|
口⑤口⑤ |⑤---|
③口口① |----|
15
口③⑥口 |①---|
口⑤②口 |②-③-|
口口口口 |④---|
①口口④ |⑤-⑥-|
16
③口口口 |①---|
口口口口 |②-③-|
①口口②
口口口口

口口口④
口⑤口口
⑤口⑤口 |④---|
口口口⑤ |⑤---|
17
口④口口 |①-②③|
口⑥③口 |④-⑤⑥|
⑤口口②
①口口口

口口口口
口口口口
口⑨⑧口 |-⑦-⑧|
⑩口口⑦ |⑨-⑩-|
18
口口口口 |①-②-|
口④③口 |③-④-|
②口口①
口口口口

口⑤口⑤
⑤口⑧⑤
口⑦口口 |⑤-⑥-|
⑥口口口 |⑦-⑧-|
19
①口①② |①---|
③①③④ |--②-|
口③口口 |③---|
口口口口 |--④-|
20
④口口④ |①-②-|
③⑤⑤口 |③④-⑤|
①②①③ |----|
口①口② |----|
21
口口口口 |--①-|
口⑥③口 |②-③-|
口②⑤口 |--④-|
①口口④ |⑤-⑥-|
22
①②②口 |①---|
③④④③ |----|
口口口口 |②--③|
口口口口 |--④-|
23
口口口② |①---|
③口③④ |--②-|
①③①口 |③---|
口①口口 |--④-|
24
④口口④ |①-②-|
③⑤⑤口 |③④-⑤|
①②①③ |----|
口①口② |----|
25
口口口① |--①-|
口②口⑦ |②-③-|
口⑥口③ |④-⑤-|
口④口⑤ |⑥-⑦-|
26
①⑤⑤③ |①-②-|
⑤①③⑤ |③-④-|
①⑤⑤③ |⑤---|
口④②口 |----|
27
⑦口口⑧ |①-②-|
⑤口口⑥ |③-④-|
③口口④ |⑤-⑥-|
①口口② |⑦-⑧-|
28
口①⑧口 |①-②-|
口⑦②口 |③-④-|
口③⑥口 |⑤-⑥-|
口⑤④口 |⑦-⑧-|
29
⑤⑬⑨① |①②③④|
⑥⑭⑩② |⑤⑥⑦⑧|
⑦⑮⑪③ |⑨⑩⑪⑫|
⑧⑯⑫④ |⑬⑭⑮⑯|
30
⑤⑬⑨① |①②③④|
⑥⑭⑩② |⑤⑥⑦⑧|
⑦⑮⑪③ |⑨⑩⑪⑫|
⑧⑯⑫④ |⑬⑭⑮⑯|
31
⑧口口① |①②③④|
⑦口口② |⑤⑥⑦⑧|
⑥口口③
⑤口口④

口⑨⑪口
口⑩⑨⑫
口口口口 |⑨---|
口口口口 |⑩-⑪⑫|
32
口③⑤③ |①---|
口④③口 |②---|
口②①口 |③---|
口口口口 |④--⑤|
33
口口口口 |①-②-|
口口口① |③-④-|
④口②口
口③口口

口⑤口⑤
口口⑤口
口⑥⑦⑧ |⑤-⑥-|
口口口口 |⑦-⑧-|
34
口口口口 |①-②-|
④③②① |③-④-|
口口口口 |⑤-⑥-|
⑤⑥⑦⑧ |⑦-⑧-|
35
口①①口 |①---|
①口口① |----|
口①①口 |----|
口口口口 |----|
36
口口口口 |----|
口口口口 |----|
口口口口 |----|
口口口口 |----|
37
口口口口 |----|
口口口口 |----|
口口口口 |----|
口口口口 |----|
38
口口口口 |----|
口口口口 |----|
口口口口 |----|
口口口口 |----|
39
口①口① |①---|
口口①口 |----|
口①口① |----|
口口口口 |----|
40
①口①口 |①---|
口①口口 |----|
①口①口 |----|
口口口口 |----|
41
口口口口 |①---|
口①口① |----|
口口①口 |----|
口①口① |----|
42
口口口口 |①---|
①口①口 |----|
口①口口
①口①口

口⑤口②
口口口口
③口口口 |----|
口口④口 |②③④⑤|
43
③口口⑥ |①---|
②④⑤② |②---|
口①①口 |③-④⑤|
②口口② |-⑥--|
44
口口口口 |①--②|
①口口① |----|
口口口口
口②②口

口口口口
口口口口
口口口口 |----|
口③③口 |--③-|
45
口⑤③口 |①-②-|
口①①口 |③④-⑤|
口②④口
口口口口

口口口口
⑧口口口
口⑦口口 |----|
口口⑥口 |-⑥⑦⑧|
46
⑤口①⑤ |①---|
口④④口 |②③-④|
⑤口口⑤ |⑤---|
②口口③ |----|
47
③口口⑥ |①---|
②④⑤② |②---|
口①①口 |③-④⑤|
②口口② |-⑥--|
48
口口口口 |①②③④|
①口口③ |----|
口口口口 |----|
口④②口 |----|
49
口口口② |①---|
口口③口 |②--③|
口口口口
①口口①

口⑨⑨口
口口口⑤
口④口⑥ |④⑤⑥⑦|
⑧口口⑦ |⑧-⑨-|
50
口口口口 |①②-③|
①口⑤口 |④-⑤-|
②口口口
口③④口

口⑩口⑨
口⑪口⑧
口⑫口⑦ |⑥⑦⑧⑨|
口⑬口⑥ |⑩⑪⑫⑬|
51
①口①口 |①-②-|
③口③⑤ |③-④⑤|
②口②④
口口口口

⑨⑧⑦⑥
口口口口
口口口口 |⑥-⑦-|
口口口口 |⑧-⑨-|
52
口⑥⑤口 |①-②③|
⑦口口④ |④-⑤-|
口②②③ |⑥-⑦-|
①口口① |----|
53
口口口② |①-②-|
口①①口 |③---|
口③③口 |----|
④口口口 |--④-|
54
②口口③ |①-②-|
口⑤④口 |③-④-|
口④⑤口 |⑤---|
口口口① |----|
55
⑤口口⑥ |①-②-|
③口口④ |③-④-|
⑦口口⑧ |⑤-⑥-|
①口口② |⑦-⑧-|
56
口②②口 |①---|
口口口口 |②---|
口②②口
口①①口

口口口口
③口口③
口口口口 |③---|
④⑤口⑥ |④⑤-⑥|
57
②口口② |①-②-|
口③③口 |③---|
口③③口 |----|
口④①口 |--④-|
58
②口②口 |①---|
口②口口 |②---|
②①②口
口口口口

口口口口
口口⑤口
口④口口 |--③-|
③口口口 |④-⑤-|
59
①口①② |①---|
③①③④ |--②-|
口③口口 |③---|
口口口口 |--④-|
60
④口口④ |①-②-|
③⑤⑤口 |③④-⑤|
①②①③ |----|
口①口② |----|
61
口口口口 |--①-|
口⑥③口 |②-③-|
口②⑤口 |--④-|
①口口④ |⑤-⑥-|
62
①②②口 |①---|
③④④③ |----|
口口口口 |②--③|
口口口口 |--④-|
63
口口口② |①---|
③口③④ |--②-|
①③①口 |③---|
口①口口 |--④-|
64
④口口④ |①-②-|
③⑤⑤口 |③④-⑤|
①②①③ |----|
口①口② |----|
65
口口口① |--①-|
口②口⑦ |②-③-|
口⑥口③ |④-⑤-|
口④口⑤ |⑥-⑦-|
66
①⑤⑤③ |①-②-|
⑤①③⑤ |③-④-|
①⑤⑤③ |⑤---|
口④②口 |----|


不确定度: 0

最終更新:2012年11月14日 15:45