CAT'S EYE
杏里

BASIC

Level: 3
BPM: 145
Notes: 177

全程BPM在145附近飄忽不定
1
口口口口 |----|
口口口口 |----|
口口口口 |----|
口口口口 |----|
2
口口口口 |----|
口口口口 |----|
口口口口 |----|
口口口口 |----|
3
①口口口 |①---|
②口口口 |----|
口口口口 |②---|
口口口口 |----|
4
口口口口 |①---|
口口口① |----|
口口口② |②---|
口口口口 |----|
5
口口口口 |①---|
①口口口 |----|
②口口口 |②---|
口口口口 |----|
6
口口口口 |①---|
口口口口 |----|
口口口① |②---|
口口口② |----|
7
③口口口 |①---|
口口②口 |②---|
④口口口 |③---|
口口①口 |④---|
8
口③口口 |①---|
口口口② |②---|
口④口口 |③---|
口口口① |④---|
9
①口口口 |①---|
②口口口 |----|
口口口口 |②---|
口口口口 |----|
10
口口口口 |①---|
口口口① |----|
口口口② |②---|
口口口口 |----|
11
口口口口 |①---|
①口口口 |----|
②口口口 |②---|
口口口口 |----|
12
口口口口 |①---|
口口口口 |----|
口口口① |②---|
口口口② |----|
13
口④口口 |①---|
口③口口 |②---|
口②口口 |③---|
口①口口 |④---|
14
口口口口 |①-②-|
口口①口 |--③-|
口②口口 |----|
口口③口 |----|
15
口口口④ |①---|
口口口③ |②---|
口口口② |③---|
口口口① |④---|
16
口口口口 |①-②-|
口口①口 |③-④-|
口②口③ |----|
口口④口 |----|
17
④口口口 |①---|
③口口口 |②---|
②口口口 |③---|
①口口口 |④---|
18
口口口口 |①---|
口①口口 |②-③-|
②口口口 |----|
口③口口 |----|
19
口口④口 |①---|
口口③口 |②---|
口口②口 |③---|
口口①口 |④---|
20
①口口① |①---|
口②②口 |②-③-|
口③③口 |----|
口口口口 |----|
21
口②②口 |①---|
口口口口 |②---|
口口口口 |----|
口①①口 |----|
22
口口口口 |①---|
口口口③ |②-③-|
口口②口 |----|
①口口口 |----|
23
口口口口 |①--②|
③口口口 |--③-|
口②口口 |----|
口口口① |----|
24
口口口口 |①---|
口③口口 |②-③-|
口口②口
①口口口

口口口口
口口口口
口口口口 |----|
④口口口 |④---|
25
口口口口 |①---|
口③②① |②---|
口口口口 |③---|
口口口口 |----|
26
口口口口 |①---|
口口口③ |②-③-|
口口②口 |----|
①口口口 |----|
27
口口口口 |①---|
③口口口 |②-③-|
口②口口 |----|
口口口① |----|
28
口口口口 |----|
口口口口 |①---|
①口口② |②---|
口口口口 |----|
29
口口③口 |①---|
口口②口 |②-③-|
口口口口 |----|
口①口口 |----|
30
口口口口 |①---|
②①①② |②---|
口口口口 |③---|
口③③口 |----|
31
①口②口 |①---|
口③口口 |②---|
口④口口 |③-④-|
口口口口 |----|
32
口口口口 |①---|
口④口口 |②---|
口③口口 |③-④-|
①口②口 |----|
33
口口口口 |①---|
口口口口 |②---|
①②③④ |③---|
口口口口 |④---|
34
口口③口 |①---|
口口②① |--②-|
口口口口 |③---|
口口口口 |----|
35
①口②口 |①---|
口③口口 |②---|
口④口口 |③-④-|
口口口口 |----|
36
口口口口 |①---|
口④口口 |②---|
口③口口 |③-④-|
①口②口 |----|
37
口口口口 |①---|
口口口口 |②---|
①②③④ |③---|
口口口口 |④---|
38
②口口② |①---|
③口①③ |----|
口④④口 |②-③-|
口口口口 |--④-|
39
口口口口 |----|
口口口口 |----|
口口口口 |----|
口口口口 |----|
40
③口口③ |----|
口③③口 |----|
口口②口 |①--②|
口口口① |--③-|
41
口口口口 |----|
①口口口 |--①-|
口口口口 |----|
口口口口 |----|
42
口口口口 |①---|
②①①② |②---|
口口口口 |③---|
口③③口 |----|
43
①口②口 |①---|
口③口口 |②---|
口④口口 |③-④-|
口口口口 |----|
44
口口口口 |①---|
口④口口 |②---|
口③口口 |③-④-|
①口②口 |----|
45
口口口口 |①---|
口口口口 |②---|
①②③④ |③---|
口口口口 |④---|
46
口口③口 |①---|
口口②① |--②-|
口口口口 |③---|
口口口口 |----|
47
①口②口 |①---|
口③口口 |②---|
口④口口 |③-④-|
口口口口 |----|
48
口口口口 |①---|
口④口口 |②---|
口③口口 |③-④-|
①口②口 |----|
49
口口口口 |①---|
口口口口 |②---|
①②③④ |③---|
口口口口 |④---|
50
②口口② |①---|
③口①③ |----|
口④④口 |②-③-|
口口口口 |--④-|
51
口口口口 |----|
口口口口 |----|
口口口口 |----|
口口口口 |----|
52
③口口③ |----|
口③③口 |----|
口口②口 |①--②|
口口口① |--③-|


不确定度: 0

最終更新:2012年11月14日 15:45