CAT'S EYE
杏里

ADVANCED

Level: 6
BPM: 145
Notes: 337

全程BPM在145附近飄忽不定
1
口口口口 |----|
口口口口 |----|
口口口口 |----|
口口口口 |----|
2
口口口口 |----|
口口②口 |----|
口②口口 |--①-|
口口①① |-②--|
3
①①口口 |①---|
②②口口 |--②-|
口口口口 |----|
口口口口 |----|
4
口口口口 |①---|
口口④① |--②-|
口④①口 |--③-|
②②③③ |-④--|
5
①①口口 |①---|
②②口口 |--②-|
口口口口 |----|
口口口口 |----|
6
口口口口 |①---|
口口口① |--②-|
口口①口 |----|
②②口口 |----|
7
⑤口口④ |①-②-|
口⑥③口 |③-④-|
⑦口口② |⑤-⑥-|
口⑧①口 |⑦-⑧-|
8
⑤口口④ |①-②-|
口⑥③口 |③-④-|
⑦口口② |⑤-⑥-|
口⑧①口 |⑦-⑧-|
9
口口口口 |①---|
②②口口 |--②-|
口口口口 |----|
口口①口 |----|
10
口口口口 |①---|
口口④① |--②-|
口④①口 |--③-|
②②③③ |-④--|
11
①①口口 |①---|
②②口口 |--②-|
口口口口 |----|
口口口口 |----|
12
口口口口 |①---|
口口口① |--②-|
口口①口 |----|
②②口口 |----|
13
口⑦⑥口 |--①-|
③口口⑤ |②-③-|
②口口④ |④-⑤-|
①口口口 |⑥-⑦-|
14
口口口口 |①-②-|
口③①口 |--③-|
口口③口 |----|
②口口口 |----|
15
口③②① |--①-|
④口口口 |②-③-|
口⑤口口 |④-⑤-|
口口⑥⑦ |⑥-⑦-|
16
口口口① |①-②-|
③④⑥② |③-④-|
②⑥④③ |--⑤-|
①口⑤⑤ |-⑥--|
17
①①口口 |①-②-|
④口口口 |③-④-|
③口口口
②口口口

口⑧⑦口
口口口⑥
口口口⑤ |⑤-⑥-|
口口口口 |⑦-⑧-|
18
口口口口 |①---|
口③①口 |②-③-|
口口③口 |----|
②口口口 |----|
19
口③②① |--①-|
④口口口 |②-③-|
口⑤口口 |④-⑤-|
口口⑥⑦ |⑥-⑦-|
20
口口口① |①-②-|
口口口② |③-④-|
④口④③ |----|
口④口口 |----|
21
口②口② |①---|
口口口口 |②---|
口口口口 |----|
①口①口 |----|
22
③口③口 |①---|
口口口口 |②-③-|
口口②口 |----|
①口口口 |----|
23
口③口③ |①--②|
口口口口 |--③-|
口②口口 |----|
口口口① |----|
24
③口③口 |①---|
口口口口 |②-③-|
口口②口
①口口口

口口口口
口口口口
⑤口口口 |----|
④口口口 |④-⑤-|
25
口口口① |①-②-|
口口口② |③-④-|
口③口口 |----|
口口④④ |----|
26
③口③口 |①---|
口口口口 |②-③-|
口口②口 |----|
①口口口 |----|
27
口③口③ |①---|
口口口口 |②-③-|
口②口口 |----|
口口口① |----|
28
①②⑧⑦ |--①②|
口口口口 |③④⑤⑥|
口口④③ |⑦⑧--|
⑤⑥⑨⑨ |--⑨-|
29
①①口口 |①---|
③②②③ |②-③-|
③②②③ |----|
口口口口 |----|
30
②口口口 |①--②|
③口口口 |--③④|
口口④口
口口口①

⑥口口口
口口口口
口口口口 |⑤---|
⑤⑤口口 |--⑥-|
31
口口口③ |--①-|
⑤②⑤口 |②-③-|
④④④口 |④-⑤-|
⑥④口① |--⑥-|
32
口口⑥③ |--①-|
口⑤口⑤ |②-③-|
②④④④ |④-⑤-|
口口④① |--⑥-|
33
④⑦口① |--①-|
⑤口②口 |②-③-|
③口口⑥ |④-⑤-|
口口口口 |⑥-⑦-|
34
③口②② |----|
口口①口 |--①-|
口①口口 |②---|
②②口口 |--③-|
35
口口口③ |--①-|
⑤②⑤口 |②-③-|
④④④口 |④-⑤-|
⑥④口① |--⑥-|
36
口口⑥③ |--①-|
口⑤口⑤ |②-③-|
②④④④ |④-⑤-|
口口④① |--⑥-|
37
④⑦口① |--①-|
⑤口②口 |②-③-|
③口口⑥ |④-⑤-|
口口口口 |⑥-⑦-|
38
①口口① |----|
口③③口 |----|
口③③口 |①-②-|
②口口② |--③-|
39
口口口口 |----|
口口口口 |----|
口口口口 |----|
口口口口 |----|
40
②口口③ |----|
口④口④ |--①-|
口④④④ |②--③|
①口④口 |--④-|
41
口口口口 |----|
①口口口 |--①-|
口口口口 |----|
口口口口 |----|
42
②口口口 |①--②|
③口口口 |--③④|
口口④口
口口口①

⑥口口口
口口口口
口口口口 |⑤---|
⑤⑤口口 |--⑥-|
43
口口口③ |--①-|
⑤②⑤口 |②-③-|
④④④口 |④-⑤-|
⑥④口① |--⑥-|
44
口口⑥③ |--①-|
口⑤口⑤ |②-③-|
②④④④ |④-⑤-|
口口④① |--⑥-|
45
④⑦口① |--①-|
⑤口②口 |②-③-|
③口口⑥ |④-⑤-|
口口口口 |⑥-⑦-|
46
③口②② |----|
口口①口 |--①-|
口①口口 |②---|
②②口口 |--③-|
47
口口口③ |--①-|
⑤②⑤口 |②-③-|
④④④口 |④-⑤-|
⑥④口① |--⑥-|
48
口口⑥③ |--①-|
口⑤口⑤ |②-③-|
②④④④ |④-⑤-|
口口④① |--⑥-|
49
④⑦口① |--①-|
⑤口②口 |②-③-|
③口口⑥ |④-⑤-|
口口口口 |⑥-⑦-|
50
①口口① |----|
口③③口 |----|
口③③口 |①-②-|
②口口② |--③-|
51
口口口口 |----|
口口口口 |----|
口口口口 |----|
口口口口 |----|
52
②口口③ |----|
口④口④ |--①-|
口④④④ |②--③|
①口④口 |--④-|


不确定度: 0

最終更新:2012年11月14日 15:44