Cake House (Korean.Ver)
TENSI LOVE

BASIC

Level: 3
BPM: 130
Notes: 219

1
口口口口 |----|
口口口口 |----|
口口口口 |----|
口口口口 |----|
2
口口口口 |①---|
口①①口 |----|
口口口口 |----|
口口口口 |----|
3
口口口口 |①---|
口口口口 |----|
口①①口 |----|
口口口口 |----|
4
口口口口 |①---|
口口口口 |----|
口口口口 |----|
口①①口 |----|
5
口口口口 |①---|
口口口口 |----|
口①①口 |----|
口口口口 |----|
6
口口口口 |①---|
①口口② |----|
口口口口 |②---|
口口口口 |----|
7
口口口口 |①---|
口口口口 |----|
①口口② |②---|
口口口口 |----|
8
口口口口 |①---|
口口口口 |----|
口②②口 |②---|
口①①口 |----|
9
口口口口 |①---|
口①①口 |----|
口口口口 |----|
口口口口 |----|
10
①口口② |①---|
口③③口 |②---|
口口口口 |③---|
口口口口 |----|
11
口口口口 |①---|
口③③口 |②---|
①口口② |③---|
口口口口 |----|
12
口口口口 |①---|
口口口口 |----|
①①②② |②---|
口口口口 |----|
13
口口口口 |①---|
口③口口 |②---|
口口②口 |③---|
口①口口 |----|
14
①口口② |①---|
口③③口 |②---|
口口口口 |③---|
口口口口 |----|
15
口口口口 |①---|
口③③口 |②---|
①口口② |③---|
口口口口 |----|
16
口口口口 |①---|
①口口② |----|
①口口② |②---|
口口口口 |----|
17
②口口② |①---|
口①①口 |----|
口口口口 |②---|
口口口口 |----|
18
口口口口 |①---|
口口口口 |----|
口①②口 |②---|
口口口口 |----|
19
口口口口 |①---|
口口口口 |----|
口①②口 |②---|
口口口口 |----|
20
口口口口 |----|
①②③口 |①---|
口口口口 |②---|
口口口口 |③---|
21
口口口口 |①---|
口口口口 |②---|
④③②① |③---|
口口口口 |④---|
22
口口口口 |①---|
口口口口 |②---|
④③②① |③---|
口口口口 |④---|
23
③口口④ |①---|
口①②口 |②---|
口口口口 |③---|
口口口口 |④---|
24
口口口口 |----|
①②③口 |①---|
口口口口 |②---|
口口口口 |③---|
25
口口口口 |①---|
口口口口 |②---|
②④④① |③---|
口③③口 |④---|
26
口②②口 |①---|
口①①口 |②---|
口④④口 |③---|
口③③口 |④---|
27
②口口② |①---|
①口口① |②---|
口口口口 |----|
口口口口 |----|
28
口口口① |----|
口口口② |①---|
口口口③ |②---|
口口口口 |③---|
29
口口口口 |①---|
口口①口 |②---|
口③②口 |③---|
口④口口 |④---|
30
①口口口 |----|
②口口口 |①---|
③口口口 |②---|
口口口口 |③---|
31
口口口口 |①---|
口①口口 |②---|
口②③口 |③---|
口口④口 |④---|
32
口口口① |①---|
口口②① |②---|
口口③口 |③---|
口口④口 |④---|
33
①口口口 |①---|
①②口口 |②---|
口③口口 |③---|
口④口口 |④---|
34
口口口口 |①---|
口口口口 |②---|
④③②① |③---|
口口口① |④---|
35
①口口口 |①---|
①②③④ |②---|
口口口口 |③---|
口口口口 |④---|
36
①①口口 |①---|
②口口口 |----|
口口口口 |②---|
口口口口 |----|
37
口口口口 |①---|
口口口口 |----|
口①口口 |②---|
口②口口 |----|
38
口口口口 |①---|
口口口口 |----|
口口②口 |②---|
口口①① |----|
39
口口口② |①---|
口口口① |----|
口口口口 |②---|
口口口口 |----|
40
①①口口 |①---|
口②口口 |----|
口口口口 |②---|
口口口口 |----|
41
口口口口 |①---|
口口口口 |----|
①口口口 |②---|
②口口口 |----|
42
口口口口 |①---|
口口口口 |----|
口口口② |②---|
口口①① |----|
43
口口口口 |①---|
口②②口 |----|
口①①口 |②---|
口口口口 |----|
44
①口口① |①---|
②口口② |----|
口口口口 |②---|
口口口口 |----|
45
①口口① |①---|
②口口② |----|
口口口口 |②---|
口口口口 |----|
46
①口口② |①---|
口③③口 |②---|
口口口口 |③---|
口口口口 |----|
47
口口口口 |①---|
口③③口 |②---|
①口口② |③---|
口口口口 |----|
48
口口口口 |①---|
口口口口 |----|
①①②② |②---|
口口口口 |----|
49
口口口口 |①---|
口③口口 |②---|
口口②口 |③---|
口①口口 |----|
50
①口口② |①---|
口③③口 |②---|
口口口口 |③---|
口口口口 |----|
51
口口口口 |①---|
口③③口 |②---|
①口口② |③---|
口口口口 |----|
52
口口口口 |①---|
①口口② |----|
①口口② |②---|
口口口口 |----|
53
口口口口 |①---|
口①①口 |----|
口口口口 |----|
口口口口 |----|
54
①口口② |①---|
口③③口 |②---|
口口口口 |③---|
口口口口 |----|
55
口口口口 |①---|
口③③口 |②---|
①口口② |③---|
口口口口 |----|
56
口口口口 |①---|
口口口口 |----|
①口口② |②---|
口①②口 |----|
57
口口口口 |①---|
口③口口 |②---|
口口②口 |③---|
口①口口 |----|
58
①口口② |①---|
口③③口 |②---|
口③③口 |③---|
口口口口 |----|
59
口口口口 |①---|
口③③口 |②---|
①③③② |③---|
口口口口 |----|
60
口口口口 |①---|
②口口① |----|
①口口② |②---|
口口口口 |----|
61
口②②口 |①---|
口口口口 |----|
口口口口 |②---|
①口口① |----|
62
口口口口 |①---|
口口口口 |----|
口①①口 |----|
口口口口 |----|


不确定度: 0

最終更新:2012年11月14日 15:44