Cake House (Korean.Ver)
TENSI LOVE

ADVANCED

Level: 5
BPM: 130
Notes: 358

1
口口口口 |----|
口口口口 |----|
口口口口 |----|
口口口口 |----|
2
①口口① |①---|
口②口口 |----|
口口③口 |--②-|
口④口口 |③-④-|
3
口口口口 |----|
口口口口 |--①-|
口口口口 |----|
①口口① |----|
4
口口口口 |----|
口口口口 |----|
口口口口 |----|
口口口口 |----|
5
口②②口 |①---|
口①①口 |--②-|
口口口口 |----|
③口口④ |③-④-|
6
口⑥⑥口 |①---|
口①①口 |②-③-|
②③④⑤ |④-⑤-|
口口口口 |--⑥-|
7
口口口口 |--①-|
⑥①口口 |②-③-|
⑤④③② |④-⑤-|
口口口口 |--⑥-|
8
②②①① |①---|
口⑥⑥③ |②---|
④口口口 |③-④-|
口口口⑤ |⑤-⑥-|
9
口口口口 |----|
口口口口 |----|
口口口口 |----|
①口口② |①-②-|
10
口⑥⑥口 |①---|
口①①口 |②-③-|
②③④⑤ |④-⑤-|
口口口口 |--⑥-|
11
口口口口 |--①-|
⑥①口口 |②-③-|
⑤④③② |④-⑤-|
口口口口 |--⑥-|
12
②②①① |①---|
口口口口 |②---|
口④③口 |③-④-|
口⑥⑤口 |⑤-⑥-|
13
口②口口 |--①-|
③口①口 |②-③-|
口口口口 |----|
④口口⑤ |④-⑤-|
14
口⑥⑥口 |①---|
口①①口 |②-③-|
②③④⑤ |④-⑤-|
口口口口 |--⑥-|
15
口口口口 |--①-|
口①口口 |②-③-|
⑤④③② |④-⑤-|
口口口口 |----|
16
①口口② |①-②-|
口⑦口口 |③-④-|
③口⑥④ |--⑤-|
口⑤口口 |⑥-⑦-|
17
③①①③ |--①-|
口口口口 |②-③-|
②口口② |----|
口口口口 |----|
18
口口口口 |①---|
口口口口 |②---|
口口口口 |③---|
①②④③ |④---|
19
口口口口 |①---|
口口口口 |②---|
口口口口 |③---|
①②④③ |④---|
20
口口口口 |----|
口⑥⑤口 |①-②-|
口③④口 |③-④-|
①②口口 |⑤-⑥-|
21
口口口口 |--①-|
④⑤⑥⑦ |②-③-|
口口③口 |④-⑤-|
口口②① |⑥-⑦-|
22
口口口⑦ |--①-|
④⑤⑥⑦ |②-③-|
口口③口 |④-⑤-|
口口②① |⑥-⑦-|
23
①口口口 |--①-|
①口口口 |----|
口口口口 |②---|
②口口③ |③---|
24
口口口口 |----|
口⑥⑤口 |①-②-|
口③④口 |③-④-|
①②口口 |⑤-⑥-|
25
口口口口 |--①-|
口口口口 |--②-|
口口口口
②①口②

⑤口口⑤
④口口④
③口口③ |③-④-|
口⑥⑥口 |⑤-⑥-|
26
口①①⑥ |①---|
⑤②②口 |②---|
口口口④ |③-④-|
③口口口 |⑤-⑥-|
27
口口口口 |①---|
口①①口 |②---|
口口口口 |----|
口②②口 |----|
28
口①口口 |----|
口口②口 |①---|
口③口口 |②---|
口口口口 |③---|
29
②口口① |①---|
口口口口 |②---|
口④④口 |③---|
口③③口 |④---|
30
口①口口 |----|
口口②口 |①---|
口③口口 |②---|
口口口口 |③---|
31
②口口① |①---|
口口口口 |②---|
口④④口 |③---|
口③③口 |④---|
32
口①①口 |①---|
口口口口 |②-③-|
③口口②
口口口口

口口⑤口
口④口⑥
口口口口 |--④-|
口口口口 |⑤-⑥-|
33
口口口口 |----|
口口①口 |--①-|
口口口口 |②---|
③口②口 |③---|
34
口口口口 |①---|
①口口① |②-③-|
口②③口 |----|
口口口口 |----|
35
口口口口 |----|
口口口口 |----|
口口口口 |----|
口口口口 |----|
36
①口口① |①---|
口③④口 |②---|
②⑤⑥② |③-④-|
口口⑥口 |⑤-⑥-|
37
口口口口 |----|
口口②口 |--①-|
①口口口 |----|
①口口口 |--②-|
38
口口口口 |--①-|
⑦⑥⑤④ |②-③-|
口③②口 |④-⑤-|
口①口口 |⑥-⑦-|
39
口口口口 |----|
口口口口 |----|
口口口口 |----|
口①口口 |--①-|
40
①口口① |①---|
口③④口 |②---|
口⑤⑥② |③-④-|
口口⑥口 |⑤-⑥-|
41
口口口口 |----|
口口口口 |--①-|
①口口口 |----|
①口②口 |--②-|
42
口口口口 |①---|
①口口② |②---|
口③④口 |③-④-|
口口⑤口 |--⑤-|
43
③口口③ |--①-|
④口②④ |--②-|
口①口口 |----|
口口口口 |③-④-|
44
③口口③ |--①-|
④口口④ |----|
口②口口 |--②-|
①口口① |③-④-|
45
口口口口 |--①-|
口口口口 |----|
口口口口
①口口①

口口口口
口口口口
口口口口 |----|
②口口③ |②-③-|
46
口⑥⑥口 |①---|
口①①口 |②-③-|
②③④⑤ |④-⑤-|
口口口口 |--⑥-|
47
口口口口 |--①-|
⑥①口口 |②-③-|
⑤④③② |④-⑤-|
口口口口 |--⑥-|
48
②②①① |①---|
口口口口 |②---|
口④③口 |③-④-|
口⑥⑤口 |⑤-⑥-|
49
口②口口 |--①-|
③口①口 |②-③-|
口口口口 |----|
④口口⑤ |④-⑤-|
50
口⑥⑥口 |①---|
口①①口 |②-③-|
②③④⑤ |④-⑤-|
口口口口 |--⑥-|
51
口口口口 |--①-|
口①口口 |②-③-|
口口③②
口口口口

口口口口
口⑥口口
⑤④口口 |④-⑤-|
口口口口 |--⑥-|
52
①口口① |①---|
口口口口 |②-③-|
口②③口
口口口口

⑥⑥⑥⑥
口⑤④口
口口口口 |④-⑤-|
口口口口 |--⑥-|
53
口口口口 |----|
口口口口 |----|
口口口口 |----|
①口口② |①-②-|
54
口⑥⑥口 |①---|
口①①口 |②-③-|
②口口⑤ |④-⑤-|
口③④口 |--⑥-|
55
口口口口 |--①-|
⑥①口口 |②-③-|
⑤口口② |④-⑤-|
口④③口 |--⑥-|
56
②②①① |①---|
口口口口 |②---|
口⑤③口 |③-④-|
口⑥④口 |⑤-⑥-|
57
口②口口 |--①-|
③口①口 |②-③-|
口口口口 |----|
④口口⑤ |④-⑤-|
58
口⑥⑥口 |①---|
②①①③ |②-③-|
②④⑤③ |④-⑤-|
口④⑤口 |--⑥-|
59
口口口口 |--①-|
口①口口 |②-③-|
④⑤③② |④-⑤-|
④⑤③② |----|
60
①口口② |①-②-|
口⑦口口 |③-④-|
③口⑥④ |--⑤-|
口⑤口口 |⑥-⑦-|
61
③③③③ |--①-|
①口口① |②-③-|
口口口口 |----|
②口口② |----|
62
口口口口 |①---|
口①①口 |----|
口①①口 |----|
口口口口 |----|


不确定度: 0

最終更新:2012年11月14日 15:44