Cake House (Korean.Ver)
TENSI LOVE

EXTREME

Level: 7
BPM: 130
Notes: 569

1
口口口口 |----|
①口口① |----|
口口口② |----|
口口口口 |①-②-|
2
口口口口 |①--②|
口⑥⑤④ |--③-|
口⑥口口 |--④-|
①②③口 |⑤-⑥-|
3
口口口口 |①--②|
口口③口 |--③-|
口口口口 |----|
①②③口 |----|
4
口口口口 |①--②|
口口口口 |--③-|
口口口口 |----|
①②③口 |----|
5
口口③① |①--②|
口口口口 |--③-|
①②③口 |----|
④口口⑤ |④-⑤-|
6
口口口口 |①---|
②①①③ |②-③-|
口口口口
口口口口

口⑤⑤口
口⑥口口
口④④口 |④-⑤-|
口口口口 |--⑥-|
7
口口口口 |--①-|
口口口口 |②-③-|
口口口口
①②③口

口⑤⑤口
口口口口
口④④口 |④-⑤-|
⑥口口口 |--⑥-|
8
②口口① |①---|
口口口口 |②---|
②口口①
口口口口

⑥⑥⑥⑥
口⑤口口
口口④口 |③-④-|
口③口口 |⑤-⑥-|
9
口口口口 |①②③④|
①口⑤② |⑤-⑥⑦|
③口口④
口⑥⑦口

口口⑨口
⑩口口口
口⑧口口 |⑧⑨⑩-|
⑫口口⑪ |⑪-⑫-|
10
口口口口 |①-②-|
③①①④ |③-④-|
口②②口
口口口口

⑤⑥⑤⑥
⑦口⑦口
口口口口 |⑤-⑥-|
口⑤⑥口 |--⑦-|
11
口口口口 |①-②-|
口①口① |③-④-|
②③④口
口口口口

⑤⑥⑤⑥
口⑦⑦口
口口口口 |⑤-⑥-|
口⑤⑥口 |--⑦-|
12
口口口口 |①---|
①③④② |②---|
口口⑤口 |③-④-|
②⑥⑥① |⑤-⑥-|
13
③口口口 |--①-|
口口口② |②-③-|
①口口口 |----|
④口口⑤ |④-⑤-|
14
口口口口 |①-②-|
③①①④ |③-④-|
口②②口
口口口口

⑤⑥⑤⑥
⑦口⑦口
口口口口 |⑤-⑥-|
口⑤⑥口 |--⑦-|
15
⑤⑥⑤⑥ |①-②-|
口①口① |③-④-|
②③④口 |⑤-⑥-|
口⑤⑥口 |----|
16
口口口口 |①-②-|
①③④② |③-④-|
⑦⑥⑤口 |--⑤-|
②④③① |⑥-⑦-|
17
①①①① |--①-|
③③③③ |②-③-|
口口口口 |----|
②②②② |----|
18
口口口口 |①-②-|
②④⑧⑥ |③-④-|
口口口口 |⑤-⑥-|
①③⑦⑤ |⑦-⑧-|
19
口口口口 |①-②-|
②④⑧⑥ |③-④-|
口口口口 |⑤-⑥-|
①③⑦⑤ |⑦-⑧-|
20
口⑥口口 |----|
口③口口 |①-②-|
②⑤④口 |③-④-|
口①口口 |⑤-⑥-|
21
口口⑦口 |--①-|
口口③⑥ |②-③-|
口④⑤② |④-⑤-|
口口①口 |⑥-⑦-|
22
口⑥口⑦ |--①-|
口③口口 |②-③-|
②⑤④⑦ |④-⑤-|
口①口口 |⑥-⑦-|
23
①口口口 |--①-|
口口口口 |----|
①口口口 |②---|
③口口② |③---|
24
口口⑥口 |----|
口口④口 |①-②-|
口③⑤① |③-④-|
口口②口 |⑤-⑥-|
25
⑤口⑤口 |--①-|
②口②口 |--②-|
④⑥④⑥ |③-④-|
③口③① |⑤-⑥-|
26
⑤①⑤① |①---|
口④①④ |②---|
②③②③ |③-④-|
⑥②⑥口 |⑤-⑥-|
27
口①口口 |①---|
①口①口 |②---|
口口②口 |----|
口②口② |----|
28
①口口① |----|
②口口② |①---|
③口口③ |②---|
口口口口 |③---|
29
口①②口 |①---|
口②①口 |②---|
口④④口 |③---|
口③③口 |④---|
30
①口口① |----|
②口口② |①---|
③口口③ |②---|
口口口口 |③---|
31
口①②口 |①---|
④②①④ |②---|
④③③④ |③---|
③口口③ |④---|
32
口①①口 |①---|
口口口口 |②-③-|
口口口口
②口口③

口⑥⑥口
④口口⑤
口④⑤口 |--④-|
口口口口 |⑤-⑥-|
33
①口口③ |----|
口②口口 |--①-|
①口口③ |②---|
口②口口 |③---|
34
口口口口 |①---|
①③①③ |②-③-|
口口口口 |----|
口②口② |----|
35
①②口口 |①②-③|
⑨③④口 |④-⑤⑥|
口口⑥⑤ |-⑦⑧-|
⑧⑦⑩⑪ |⑨-⑩⑪|
36
②口口② |①---|
口口口口 |②---|
①口口①
口口口口

⑥口口⑥
③口⑤口
口⑥⑥口 |③-④-|
口④口口 |⑤-⑥-|
37
②口口② |----|
口①①口 |--①-|
口口口口 |----|
①口口① |--②-|
38
⑦②②⑦ |--①-|
⑦⑥口⑦ |②-③-|
口口⑤口 |④-⑤-|
①④口③ |⑥-⑦-|
39
口口口口 |----|
口口口口 |----|
口口口口 |----|
口①口口 |--①-|
40
②口口② |①---|
口口口口 |②---|
①口口①
口口口口

⑥口口⑥
③口⑤口
口⑥⑥口 |③-④-|
口④口口 |⑤-⑥-|
41
口口口口 |----|
①口口① |--①-|
口口口口 |----|
①②口① |--②-|
42
口①口口 |①---|
①口口② |②---|
口口②口
口口口口

口④口④
口口口口
口⑤口⑤ |③-④-|
③⑤③⑤ |--⑤-|
43
口②口② |--①-|
①②①② |--②-|
①口①口
口口口口

口口口口
③口③口
口④口④ |----|
口口口口 |③-④-|
44
口③口③ |--①-|
④口④口 |----|
口口口口 |--②-|
①②①② |③-④-|
45
口口口口 |--①-|
口口口口 |----|
①①①① |----|
②口口③ |②-③-|
46
口口口口 |①-②-|
③①①④ |③-④-|
口②②口
口口口口

⑤⑥⑤⑥
⑦口⑦口
口口口口 |⑤-⑥-|
口⑤⑥口 |--⑦-|
47
⑤⑥⑤⑥ |①-②-|
口①⑦① |③-④-|
②③④口 |⑤-⑥-|
口⑤⑥口 |--⑦-|
48
口口口口 |①---|
①③④② |②---|
口口⑤口 |③-④-|
②⑥⑥① |⑤-⑥-|
49
③口口口 |--①-|
口口口② |②-③-|
①口口口 |----|
④口口⑤ |④-⑤-|
50
口口口口 |①-②-|
③①①④ |③-④-|
口②②口
口口口口

⑤⑥⑤⑥
⑦口⑦口
口口口口 |⑤-⑥-|
口⑤⑥口 |--⑦-|
51
⑤⑥⑤⑥ |①-②-|
口①口① |③-④-|
②③④口 |⑤-⑥-|
⑦⑤⑥⑦ |--⑦-|
52
⑥⑥⑥⑥ |①---|
①①①① |②-③-|
口③④口 |④-⑤-|
口②⑤口 |--⑥-|
53
口口口口 |①②③④|
⑧①②⑨ |⑤-⑥⑦|
⑥③④⑦ |⑧⑨⑩-|
⑪⑤⑩⑫ |⑪-⑫-|
54
口口口口 |①-②-|
③①①④ |③-④-|
口②②口
口口口口

⑤⑥⑤⑥
⑦口⑦口
口口口口 |⑤-⑥-|
口⑤⑥口 |--⑦-|
55
⑤⑥⑤⑥ |①-②-|
口①⑦① |③-④-|
②③④口 |⑤-⑥-|
口⑤⑥口 |--⑦-|
56
口口口口 |①---|
①口口② |②---|
②②①①
口口口口

口③④口
口③④口
口口⑤口 |③-④-|
口⑥⑥口 |⑤-⑥-|
57
③③口口 |--①-|
口口②② |②-③-|
①①口口 |----|
④口口⑤ |④-⑤-|
58
口口口口 |①-②-|
③①①④ |③-④-|
口②②口
口口口口

⑤⑥⑤⑥
⑦口⑦口
口口口口 |⑤-⑥-|
口⑤⑥口 |--⑦-|
59
⑤⑥⑤⑥ |①-②-|
口①口① |③-④-|
②③④口 |⑤-⑥-|
口⑤⑥口 |----|
60
口口口口 |①-②-|
①③④② |③-④-|
⑦⑥⑤口 |--⑤-|
②④③① |⑥-⑦-|
61
①①①① |--①-|
③③③③ |②-③-|
口口口口 |----|
②②②② |----|
62
口口口口 |①---|
口①①口 |----|
口①①口 |----|
口口口口 |----|


不确定度: 0

最終更新:2012年11月14日 15:43