SWEET CUBE
plazma

BASIC

Level: 2
BPM: 140
Notes: 156

1
口口口口 |----|
口口口口 |----|
口口口口 |----|
口口口口 |----|
2
④口口口 |①---|
③口口口 |②---|
②口口口 |③---|
①口口口 |④---|
3
口①口口 |①---|
口口②口 |②---|
口口口③ |③---|
口口④口 |④---|
4
口口口口 |①---|
口口口口 |----|
口口口口 |----|
口①口口 |----|
5
口口口口 |----|
口口口口 |----|
口口口口 |----|
口口口口 |----|
6
①②③④ |①---|
口口口口 |②---|
口口口口 |③---|
口口口口 |④---|
7
口口口口 |①---|
口口口① |②---|
④口②口 |③---|
口③口口 |④---|
8
口口口口 |①---|
①口口口 |----|
口口口口 |----|
口口口口 |----|
9
口口口口 |----|
口口口口 |----|
口口口口 |----|
口口口口 |----|
10
口口口① |①---|
口口口② |②---|
口口口③ |③---|
口口口④ |④---|
11
口④口口 |①---|
③口口口 |②---|
口②口口 |③---|
口口①口 |④---|
12
口口①口 |①---|
口口口口 |----|
口口口口 |----|
口口口口 |----|
13
口口口口 |----|
口口口口 |----|
口口口口 |----|
口口口口 |----|
14
口口口口 |①---|
口口口口 |②---|
口口口口 |③---|
④③②① |④---|
15
口口③口 |①---|
口②口④ |②---|
①口口口 |③---|
口口口口 |④---|
16
口口口口 |①---|
口口口口 |----|
口口口① |----|
口口口口 |----|
17
口口口口 |①---|
口①①口 |----|
口②②口 |②---|
口口口口 |----|
18
口口口④ |①---|
口口口③ |②---|
口口口② |③---|
口口口① |④---|
19
口口①口 |①---|
口②口口 |②---|
③口口口 |③---|
口④口口 |④---|
20
口口口口 |①---|
口口口口 |----|
口口口口 |----|
口口①口 |----|
21
口口口口 |----|
口口口口 |----|
口口口口 |----|
口口口口 |----|
22
④③②① |①---|
口口口口 |②---|
口口口口 |③---|
口口口口 |④---|
23
口口口口 |①---|
①口口口 |②---|
口②口④ |③---|
口口③口 |④---|
24
口口口口 |①---|
口口口① |----|
口口口口 |----|
口口口口 |----|
25
口口口口 |----|
口口口口 |----|
口口口口 |----|
口口口口 |----|
26
①口口口 |①---|
②口口口 |②---|
③口口口 |③---|
④口口口 |④---|
27
口口④口 |①---|
口口口③ |②---|
口口②口 |③---|
口①口口 |④---|
28
口①口口 |①---|
口口口口 |----|
口口口口 |----|
口口口口 |----|
29
口口口口 |----|
口口口口 |----|
口口口口 |----|
口口口口 |----|
30
口口口口 |①---|
口口口口 |②---|
口口口口 |③---|
①②③④ |④---|
31
口③口口 |①---|
④口②口 |②---|
口口口① |③---|
口口口口 |④---|
32
口口口口 |①---|
口口口口 |----|
①口口口 |----|
口口口口 |----|
33
口口口口 |----|
口口口口 |----|
口口口口 |----|
口口口口 |----|
34
④口口口 |①---|
③口口口 |②---|
②口口口 |③---|
①口口口 |④---|
35
口①口口 |①---|
口口②口 |②---|
口口口③ |③---|
口口④口 |④---|
36
口口口口 |①---|
口口口口 |----|
口口口口 |----|
口①口口 |----|
37
口口口口 |----|
口口口口 |----|
口口口口 |----|
口口口口 |----|
38
①②③④ |①---|
口口口口 |②---|
口口口口 |③---|
口口口口 |④---|
39
口口口口 |①---|
口口口① |②---|
④口②口 |③---|
口③口口 |④---|
40
口口口口 |①---|
①口口口 |----|
口口口口 |----|
口口口口 |----|
41
口口口口 |----|
口口口口 |----|
口口口口 |----|
口口口口 |----|
42
口口口① |①---|
口口口② |②---|
口口口③ |③---|
口口口④ |④---|
43
口④口口 |①---|
③口口口 |②---|
口②口口 |③---|
口口①口 |④---|
44
口口①口 |①---|
口口口口 |----|
口口口口 |----|
口口口口 |----|
45
口口口口 |----|
口口口口 |----|
口口口口 |----|
口口口口 |----|
46
口口口口 |①---|
口口口口 |②---|
口口口口 |③---|
④③②① |④---|
47
口口③口 |①---|
口②口④ |②---|
①口口口 |③---|
口口口口 |④---|
48
口口口口 |①---|
口口口口 |----|
口口口① |----|
口口口口 |----|
49
口口口口 |----|
口口口口 |----|
口口口口 |----|
口口口口 |----|
50
口口口④ |①---|
口口口③ |②---|
口口口② |③---|
口口口① |④---|
51
口口①口 |①---|
口②口口 |②---|
③口口口 |③---|
口④口口 |④---|
52
口口口口 |①---|
口口口口 |----|
口口口口 |----|
口口①口 |----|
53
口口口口 |----|
口口口口 |----|
口口口口 |----|
口口口口 |----|
54
④③②① |①---|
口口口口 |②---|
口口口口 |③---|
口口口口 |④---|
55
口口口口 |①---|
①口口口 |②---|
口②口④ |③---|
口口③口 |④---|
56
口口口口 |①---|
口口口① |----|
口口口口 |----|
口口口口 |----|
57
口口口口 |----|
口口口口 |----|
口口口口 |----|
口口口口 |----|
58
①口口口 |①---|
②口口口 |②---|
③口口口 |③---|
④口口口 |④---|
59
口口④口 |①---|
口口口③ |②---|
口口②口 |③---|
口①口口 |④---|
60
口①口口 |①---|
口口口口 |----|
口口口口 |----|
口口口口 |----|
61
口口口口 |----|
口口口口 |----|
口口口口 |----|
口口口口 |----|
62
口口口口 |①---|
口口口口 |②---|
口口口口 |③---|
①②③④ |④---|
63
口③口口 |①---|
④口②口 |②---|
口口口① |③---|
口口口口 |④---|
64
口口口口 |①---|
口口口口 |----|
①口口口 |----|
口口口口 |----|
65
口口口口 |----|
口口口口 |----|
口口口口 |----|
口口口口 |----|
66
口口口口 |①---|
口①①口 |----|
口口口口 |----|
口口口口 |----|
67
口口口口 |①---|
口口口口 |----|
口①①口 |----|
口口口口 |----|
68
口口口口 |①---|
口①①口 |----|
①口口① |----|
口口口口 |----|


不确定度: 0

最終更新:2012年11月14日 15:40