SWEET CUBE
plazma

ADVANCED

Level: 5
BPM: 140
Notes: 333

1
口口口口 |----|
口口口口 |----|
口口口口 |----|
口口口口 |----|
2
口口③口 |①---|
①②口③ |②---|
④①②口 |③---|
口④①口 |④---|
3
口③口④ |①---|
①口②口 |②---|
口口口③ |③---|
口口①口 |④---|
4
口口口口 |①---|
口口①口 |----|
口①口口 |----|
口口口口 |----|
5
口口口口 |----|
口口口口 |----|
口口口口 |----|
口口口口 |----|
6
口③口口 |①---|
③口②① |②---|
口②①④ |③---|
口①④口 |④---|
7
④口③口 |①---|
口②口① |②---|
③口口口 |③---|
口①口口 |④---|
8
口口口口 |①---|
口①口口 |----|
口口①口 |----|
口口口口 |----|
9
口口口口 |----|
口口口口 |----|
口口口口 |----|
口口口口 |----|
10
口①④口 |①---|
口②①④ |②---|
③口②① |③---|
口③口口 |④---|
11
口①口口 |①---|
③口口口 |②---|
④②口① |③---|
口④③口 |④---|
12
口口口口 |①---|
口口①口 |----|
口①口口 |----|
口口口口 |----|
13
口口口口 |----|
口口口口 |----|
口口口口 |----|
口口口口 |----|
14
口④①口 |①---|
④①②口 |②---|
①②口③ |③---|
口口③口 |④---|
15
口③口口 |①---|
③口②① |②---|
口②①④ |③---|
口①④口 |④---|
16
口口口口 |①---|
口①口口 |----|
口口①口 |----|
口口口口 |----|
17
①口①口 |①-②-|
口②口③ |③-④-|
④口④口
口口口口

⑩⑧口⑨
口口⑦口
口口口口 |⑤-⑥-|
口⑤口⑥ |⑦⑧⑨⑩|
18
口口④口 |①-②-|
①③口④ |③---|
⑤①③② |④---|
口⑤①口 |⑤---|
19
口④口⑤ |①-②-|
①②③口 |③---|
口口口④ |④---|
口口①口 |⑤---|
20
口口口口 |①---|
口口①口 |----|
口①口口 |----|
口口口口 |----|
21
口口口口 |----|
口口口口 |----|
口口口口 |----|
口口口口 |----|
22
口④口口 |①-②-|
④口③① |③---|
口③①⑤ |④---|
②①⑤口 |⑤---|
23
⑤口④口 |①-②-|
口③口① |③---|
④口口口 |④---|
②①口口 |⑤---|
24
口口口口 |①---|
口①口口 |----|
口口①口 |----|
口口口口 |----|
25
口口口口 |----|
口口口口 |----|
口口口口 |----|
口口口口 |----|
26
口①⑤口 |①-②-|
口③①⑤ |③---|
④口③① |④---|
口④口② |⑤---|
27
口①口口 |①-②-|
④口口口 |③---|
⑤③口① |④---|
口⑤④② |⑤---|
28
口口口口 |①---|
口口①口 |----|
口①口口 |----|
口口口口 |----|
29
口口口口 |----|
口口口口 |----|
口口口口 |----|
口口口口 |----|
30
口⑤①② |①-②-|
⑤①③口 |③---|
①③口④ |④---|
口口④口 |⑤---|
31
口④口② |①-②-|
④口③① |③---|
口③①⑤ |④---|
口①⑤口 |⑤---|
32
口口口口 |①---|
口①口口 |----|
口口①口 |----|
口口口口 |----|
33
口口口口 |----|
口口口口 |----|
口口口口 |----|
口口口口 |----|
34
口口③口 |①---|
①②口③ |②---|
④①②口 |③---|
口④①口 |④---|
35
口③口④ |①---|
①口②口 |②---|
口口口③ |③---|
口口①口 |④---|
36
口口口口 |①---|
口口①口 |----|
口①口口 |----|
口口口口 |----|
37
口口口口 |----|
口口口口 |----|
口口口口 |----|
口口口口 |----|
38
口③口口 |①---|
③口②① |②---|
口②①④ |③---|
口①④口 |④---|
39
④口③口 |①---|
口②口① |②---|
③口口口 |③---|
口①口口 |④---|
40
口口口口 |①---|
口①口口 |----|
口口①口 |----|
口口口口 |----|
41
口口口口 |----|
口口口口 |----|
口口口口 |----|
口口口口 |----|
42
口①④口 |①---|
口②①④ |②---|
③口②① |③---|
口③口口 |④---|
43
口①口口 |①---|
③口口口 |②---|
④②口① |③---|
口④③口 |④---|
44
口口口口 |①---|
口口①口 |----|
口①口口 |----|
口口口口 |----|
45
口口口口 |----|
口口口口 |----|
口口口口 |----|
口口口口 |----|
46
口④①口 |①---|
④①②口 |②---|
①②口③ |③---|
口口③口 |④---|
47
口③口口 |①---|
③口②① |②---|
口②①④ |③---|
口①④口 |④---|
48
口口口口 |①---|
口①③口 |②---|
口②①口 |--③-|
口口口口 |----|
49
口口口口 |①---|
口口③口 |----|
①口口② |②---|
口口口口 |③---|
50
口口④口 |①-②-|
①③口④ |③---|
⑤①③口 |④---|
口⑤①② |⑤---|
51
口④口⑤ |①-②-|
①口③口 |③---|
口口口④ |④---|
口口①② |⑤---|
52
口口口口 |①---|
口口①口 |----|
口①口口 |----|
口口口口 |----|
53
口口口口 |----|
口口口口 |----|
口口口口 |----|
口口口口 |----|
54
口④口口 |①-②-|
④口③① |③---|
口③①⑤ |④---|
②①⑤口 |⑤---|
55
⑤口④口 |①-②-|
口③口① |③---|
④口口口 |④---|
②①口口 |⑤---|
56
口口口口 |①---|
口①口口 |----|
口口①口 |----|
口口口口 |----|
57
口口口口 |----|
口口口口 |----|
口口口口 |----|
口口口口 |----|
58
②①⑤口 |①-②-|
口③①⑤ |③---|
④口③① |④---|
口④口口 |⑤---|
59
②①口口 |①-②-|
④口口口 |③---|
⑤③口① |④---|
口⑤④口 |⑤---|
60
口口口口 |①---|
口口①口 |----|
口①口口 |----|
口口口口 |----|
61
口口口口 |----|
口口口口 |----|
口口口口 |----|
口口口口 |----|
62
口⑤①口 |①-②-|
⑤①③口 |③---|
①③口④ |④---|
②口④口 |⑤---|
63
口④口口 |①-②-|
④口③① |③---|
口③①⑤ |④---|
②①⑤口 |⑤---|
64
口口口口 |①---|
口①口口 |----|
口口①口 |----|
口口口口 |----|
65
口口口口 |----|
口口口口 |----|
口口口口 |----|
口口口口 |----|
66
口口口口 |①②③-|
口①口② |----|
③口①口 |----|
口口口口 |----|
67
口口口口 |①②③-|
口①口③ |----|
②口①口 |----|
口口口口 |----|
68
口口口口 |①---|
口①①口 |----|
口①①口 |----|
口口口口 |----|


不确定度: 0

最終更新:2012年11月14日 15:39