SWEET CUBE
plazma

EXTREME

Level: 9
BPM: 140
Notes: 656

1
口口口口 |----|
口口口口 |----|
口口口口 |----|
口口口口 |----|
2
口口③① |①---|
①②①③ |②---|
④①②口 |③---|
口④①口 |④---|
3
口③口④ |①---|
①口②口 |②---|
口口口③ |③---|
口口①口 |④---|
4
口口口口 |①---|
口口①口 |----|
口①口口 |----|
①口口口 |----|
5
口口口口 |----|
口口口口 |----|
口口口口 |----|
口口口口 |----|
6
①③口口 |①---|
③①②① |②---|
口②①④ |③---|
口①④口 |④---|
7
④口③口 |①---|
口②口① |②---|
③口口口 |③---|
口①口口 |④---|
8
口口口口 |①---|
口①口口 |----|
口口①口 |----|
口口口① |----|
9
口口口口 |----|
口口口口 |----|
口口口口 |----|
口口口口 |----|
10
口①④口 |①---|
口②①④ |②---|
③①②① |③---|
①③口口 |④---|
11
口①口口 |①---|
③口口口 |②---|
④②口① |③---|
口④③口 |④---|
12
口口口① |①-②-|
口口①口 |③-④⑤|
口①口口
⑤④③②

口口口口
口口口口
⑥⑦⑧⑨ |--⑥-|
口口口口 |⑦-⑧⑨|
13
口口口口 |--①-|
④③②① |②-③④|
口口口口
口口口口

口口口⑤
口口口⑥
口口口⑦ |--⑤-|
口口口口 |⑥-⑦-|
14
口⑥①口 |①②③-|
⑥①④口 |④---|
①④②⑤ |⑤---|
口口⑤③ |⑥---|
15
口口口口 |①②③-|
⑥⑤④③ |④-⑤⑥|
⑦⑧③⑨ |--⑦-|
口①口② |⑧-⑨-|
16
口口口口 |--①-|
④③②① |②-③④|
⑤⑥⑦⑧ |--⑤-|
口口口口 |⑥-⑦⑧|
17
①③口② |①-②-|
⑤口口④ |③-④-|
口⑨⑧口 |⑤---|
⑦口口⑥ |⑥⑦⑧⑨|
18
③④⑤⑥ |①②③-|
口②③① |④-⑤⑥|
口口口④
口①口口

口口口口
⑪⑩⑨⑧
⑦口口口 |⑦-⑧-|
口⑨口口 |⑨-⑩⑪|
19
③④⑤⑥ |①②③-|
⑩⑨⑧⑦ |④-⑤⑥|
口②口口 |--⑦-|
①口③口 |⑧-⑨⑩|
20
①②③④ |--①-|
口口口口 |②-③④|
⑧⑦⑥⑤ |--⑤-|
口口口口 |⑥-⑦⑧|
21
①②③④ |--①-|
口口口口 |②-③④|
口口口口 |--⑤-|
⑦口⑥⑤ |⑥-⑦-|
22
①③②口 |①②③-|
口⑦④⑨ |④-⑤⑥|
⑥⑤④③ |⑦-⑧-|
⑧⑨⑩⑪ |⑨-⑩⑪|
23
⑨④⑦① |①②③-|
①③②口 |④-⑤⑥|
⑥⑤④③ |⑦-⑧-|
⑩口⑨⑧ |⑨-⑩-|
24
口口口口 |--①-|
口口口口 |②-③④|
④③②① |--⑤-|
⑤⑥⑦⑧ |⑥-⑦⑧|
25
口口口口 |--①-|
口口口口 |②-③④|
④③②① |--⑤-|
⑤⑥口⑦ |⑥-⑦-|
26
口口④口 |①②③-|
③④⑤⑥ |④-⑤⑥|
口②口①
口口③口

⑨⑦口口
口口口口
⑪⑩⑨⑧ |⑦-⑧-|
口口口口 |⑨-⑩⑪|
27
口口口口 |①②③-|
③④⑤⑥ |④-⑤⑥|
⑩⑨⑧⑦ |--⑦-|
口②①③ |⑧-⑨⑩|
28
口口口口 |--①-|
①②③④ |②-③④|
⑧⑦⑥⑤ |--⑤-|
口口口口 |⑥-⑦⑧|
29
口口口口 |--①-|
①②③④ |②-③④|
⑦⑧⑥⑤ |--⑤-|
口口口口 |⑥-⑦⑧|
30
口口口口 |①②③-|
②③①口 |④-⑤⑥|
口口口④
③④⑤⑥

口⑦口口
口口口⑨
⑧⑨⑩⑪ |⑦-⑧-|
口口口口 |⑨-⑩⑪|
31
口③口口 |①②③-|
②口①口 |④-⑤⑥|
⑦⑧⑩⑨ |--⑦-|
⑥⑤④③ |⑧-⑨⑩|
32
口口口口 |--①-|
③④②① |②-③④|
口口口口 |--⑤-|
⑤⑥⑦⑧ |⑥-⑦⑧|
33
口口口口 |①---|
①口①口 |----|
口①口① |----|
口口口口 |----|
34
②③④⑤ |①-②-|
口①口① |③-④⑤|
口口①③
口①口口

口口口口
⑩⑨⑧⑦
⑥⑧口口 |⑥-⑦-|
口口口口 |⑧-⑨⑩|
35
②③④⑤ |①-②-|
⑨⑩⑧⑦ |③-④⑤|
口口③① |⑥-⑦-|
⑥⑧口口 |⑧-⑨⑩|
36
①②③④ |--①-|
⑧⑦⑥⑤ |②-③④|
④③②① |--⑤-|
⑤⑥⑦⑧ |⑥-⑦⑧|
37
①②③④ |--①-|
⑦⑧⑥⑤ |②-③④|
④③②① |--⑤-|
⑤⑥⑧⑦ |⑥-⑦⑧|
38
①③⑧⑥ |①-②-|
⑦⑧⑨⑩ |③-④⑤|
⑤④③② |⑥-⑦-|
口口口口 |⑧-⑨⑩|
39
①③⑧⑥ |①-②-|
⑦⑧⑨⑩ |③-④⑤|
⑤④③② |⑥-⑦-|
口口口口 |⑧-⑨⑩|
40
口口口口 |--①-|
⑤⑥⑦⑧ |②-③④|
④③②① |--⑤-|
口口口口 |⑥-⑦⑧|
41
口口口口 |--①-|
口口口口 |②-③④|
④③②① |--⑤-|
⑤⑥⑧⑦ |⑥-⑦⑧|
42
⑥⑧③① |①-②-|
②③④⑤ |③-④⑤|
⑩⑨⑧⑦ |⑥-⑦-|
口口口口 |⑧-⑨⑩|
43
⑥⑧③① |①-②-|
②③④⑤ |③-④⑤|
⑩⑨⑧⑦ |⑥-⑦-|
口口口口 |⑧-⑨⑩|
44
口口口口 |--①-|
①②③④ |②-③④|
⑧⑦⑥⑤ |--⑤-|
口口口口 |⑥-⑦⑧|
45
口口口口 |--①-|
①②③④ |②-③④|
⑦⑧⑥⑤ |--⑤-|
口口口口 |⑥-⑦⑧|
46
口口口口 |①-②-|
①③⑧⑥ |③-④⑤|
⑦⑧⑨⑩ |⑥-⑦-|
⑤④③② |⑧-⑨⑩|
47
口口口口 |①-②-|
①③⑧⑥ |③-④⑤|
⑦⑧口⑨ |⑥-⑦-|
⑤④③② |⑧-⑨-|
48
口口口口 |--①-|
⑤②口口 |②-③④|
⑧⑦⑥⑤ |--⑤-|
④③②① |⑥-⑦⑧|
49
口口口口 |①-②-|
口①⑥口 |③-④⑤|
⑨口⑧⑦ |⑥-⑦-|
⑤④③② |⑧-⑨-|
50
③④⑤⑥ |①②③-|
口①③② |④-⑤⑥|
口口口④
口口口口

口口口口
⑧⑨⑩⑪
口口⑦口 |⑦-⑧-|
口口口⑨ |⑨-⑩⑪|
51
③④⑤⑥ |①②③-|
⑦⑧⑩⑨ |④-⑤⑥|
①②③口 |--⑦-|
口口①口 |⑧-⑨⑩|
52
口口口口 |--①-|
⑤⑥⑦⑧ |②-③④|
①②③④ |--⑤-|
口口口口 |⑥-⑦⑧|
53
口口口口 |--①-|
⑦⑧⑥⑤ |②-③④|
④③②① |--⑤-|
口口口口 |⑥-⑦⑧|
54
口口①④ |①②③-|
口口口口 |④-⑤⑥|
②①③口
③④⑤⑥

口口口口
⑪⑩⑨⑧
口口口⑦ |⑦-⑧-|
⑨口口口 |⑨-⑩⑪|
55
口口口口 |①②③-|
⑨⑩⑧⑦ |④-⑤⑥|
③①②口 |--⑦-|
⑥⑤④③ |⑧-⑨⑩|
56
口口口口 |--①-|
口口口口 |②-③④|
①②③④ |--⑤-|
⑤⑥⑦⑧ |⑥-⑦⑧|
57
口口口口 |--①-|
④③②① |②-③④|
⑤⑥⑧⑦ |--⑤-|
口口口口 |⑥-⑦⑧|
58
③④⑤⑥ |①②③-|
⑨⑦④① |④-⑤⑥|
⑧⑨⑩⑪ |⑦-⑧-|
口①③② |⑨-⑩⑪|
59
③④⑤⑥ |①②③-|
⑨⑦④① |④-⑤⑥|
⑩⑪⑨⑧ |⑦-⑧-|
口①③② |⑨-⑩⑪|
60
口口口口 |--①-|
口口口口 |②-③④|
⑤⑥⑦⑧ |--⑤-|
①②③④ |⑥-⑦⑧|
61
口口口口 |---①|
口口口口 |-②③④|
⑦⑧⑥⑤ |--⑤-|
④③②① |⑥-⑦⑧|
62
口口口口 |①②③-|
口②③① |④-⑤⑥|
口口口口
⑥⑤④③

口口口口
⑦⑧⑨⑩
口口口口 |---⑦|
口口口口 |-⑧⑨⑩|
63
口③①② |①②③-|
口口口口 |④-⑤⑥|
⑥⑤④③
口口口口

⑦⑧⑩⑨
口口口口
口口口口 |---⑦|
口口口口 |-⑧⑨⑩|
64
口口口口 |--①-|
⑧⑦⑥⑤ |②-③④|
④③②① |--⑤-|
口口口口 |⑥-⑦⑧|
65
口口⑤口 |--①-|
⑧⑨⑥⑤ |②-③④|
④③②① |--⑤-|
⑥⑦⑧⑨ |⑥⑦⑧⑨|
66
③④⑤⑥ |①②③-|
⑦⑧⑨⑩ |④-⑤⑥|
口②①③ |--⑦-|
口口口口 |⑧-⑨⑩|
67
口口口口 |①②③-|
⑨⑩⑧⑦ |④-⑤⑥|
③④⑤⑥ |--⑦-|
口①③② |⑧-⑨⑩|
68
口口口口 |①---|
口口口口 |----|
口①①口 |----|
①口口① |----|


不确定度: 0

最終更新:2012年11月14日 15:39