squall
猫叉Master+

BASIC

Level: 5
BPM: 190
Notes: 298

1
口口口口 |----|
口口口口 |----|
口口口口 |----|
口口口口 |----|
2
口口口口 |①---|
口口口口 |----|
口口口口 |----|
①口口① |----|
3
口口口口 |----|
口口口口 |----|
口口口口 |----|
口口口口 |----|
4
口口口口 |①---|
口口口口 |----|
①口口① |----|
口口口口 |----|
5
口口口口 |----|
口口口口 |----|
口口口口 |----|
口口口口 |----|
6
口口口口 |①---|
①①①① |----|
口口口口 |----|
口口口口 |----|
7
口口口口 |----|
口口口口 |----|
口口口口 |----|
口口口口 |----|
8
①①①① |①---|
口口口口 |----|
口口口口 |----|
口口口口 |----|
9
口口口口 |----|
口口口口 |----|
口口口口 |----|
口口口口 |----|
10
③②②③ |①---②-|
④口口④ |--③---|
⑤①①⑤ |④---⑤-|
⑥口口⑥ |--⑥---|
11
③口口③ |①---|
口口口口 |--②-|
口②②口 |----|
口①①口 |③---|
12
口口口口 |----|
②口口① |----|
口口口口 |①---|
口口口口 |②---|
13
③口口③ |①---|
口口口口 |--②-|
口②②口 |----|
口①①口 |③---|
14
口口口口 |----|
①口口② |----|
口口口口 |①---|
口口口口 |②---|
15
③口口③ |①---|
口口口口 |--②-|
口②②口 |----|
口①①口 |③---|
16
口口口口 |----|
②口口① |----|
口口口口 |①---|
口口口口 |②---|
17
口①①口 |①---|
口②②口 |--②-|
口口口口 |----|
口③③口 |③---|
18
口口口口 |----①-|
①口口① |--②---|
②口口② |③---|
③口口③ |----|
19
①②③口 |----|
口口口口 |①---|
口口口口 |②---|
口口口口 |③---|
20
口口口口 |①---|
口口②① |②---|
口③④口 |③-④-|
口⑤⑥口 |⑤-⑥-|
21
口③②① |----|
口口口口 |①---|
口口口口 |②---|
口口口口 |③---|
22
口口口口 |①---|
①②口口 |②---|
口③④口 |③-④-|
口⑤⑥口 |⑤-⑥-|
23
①②③口 |----|
口口口口 |①---|
口口口口 |②---|
口口口口 |③---|
24
口口口口 |①---|
口口②① |②---|
口⑤⑥口 |③-④-|
口③④口 |⑤-⑥-|
25
①口口① |①---|
②口口② |②---|
③口口③ |③---|
④口口④ |④---|
26
口口口口 |----|
口③口口 |①---|
口口②口 |②---|
口①口口 |③---|
27
口②口① |①---|
口④③口 |--②---|
口口口口 |③---|
口口口口 |--④---|
28
口口口口 |①---|
口口口口 |--②---|
④②①口 |③---|
口口③口 |--④-|
29
口口口口 |①---|
口口口口 |--②-|
口②口口 |③---|
口口③① |----|
30
口口口口 |----|
口②口口 |----|
口口口① |①---|
口口口口 |--②-|
31
口口口口 |①---|
口口口口 |--②-|
口②①口 |③---|
口口③口 |----|
32
口①②口 |----|
口口口口 |①---|
口③口口 |②---|
口口口口 |--③---|
33
口口口口 |①---|
口口口口 |--②---|
②口口口 |③---|
口口①③ |----|
34
口口口① |----|
口口口口 |----|
口口口口 |----|
口口口口 |①---|
35
①口②口 |①---|
口③④口 |--②---|
口口口口 |③---|
口口口口 |--④---|
36
口口口口 |①---|
口口口口 |--②---|
口①②④ |③---|
口③口口 |--④---|
37
口口口口 |①---|
口口口口 |--②---|
口口②口 |③---|
①③口口 |----|
38
口口口口 |----|
①口口② |----|
口口口口 |①---|
口口口口 |②---|
39
①②口口 |①---|
口④③口 |--②---|
口口口口 |③---|
口口口口 |--④---|
40
口口口口 |①---|
口口口④ |--②---|
口③①口 |③---|
口口②口 |④---|
41
口①②口 |①---|
口口口口 |②---|
口口口口 |----|
口口口口 |----|
42
口口口口 |----|
口口口口 |----|
口口口口 |----|
口口口口 |----|
43
口口口口 |①---|
③口口口 |--②-|
口①①口 |----|
口②②口 |③---|
44
口口口口 |①---|
口①②③ |②---|
口口口口 |③---|
口口口口 |----|
45
口口口③ |①---|
口口口口 |--②-|
口①①口 |----|
口②②口 |③---|
46
③②①口 |①---|
口口口口 |②---|
口口口口 |③---|
口口口口 |----|
47
口口口口 |①---|
③口口口 |--②-|
口①①口 |----|
口②②口 |③---|
48
口口口口 |①---|
口②③① |②---|
口口口口 |③---|
口口口口 |----|
49
③口口口 |①---|
口口口口 |--②-|
口①①口 |----|
口②②口 |③---|
50
口②③① |①---|
口口口口 |②---|
口口口口 |③---|
口口口口 |----|
51
口口口口 |①---|
口口口口 |--②-|
口①①口 |----|
口②②口 |----|
52
口口口口 |----|
口口口口 |----|
口口口口 |----|
口口口口 |----|
53
口口口口 |①---|
口口口口 |--②-|
口①①口 |----|
口②②口 |----|
54
口口口口 |----|
口口口口 |----|
口口口口 |----|
口口口口 |----|
55
口口口口 |①---|
口口口口 |--②-|
口①①口 |----|
口②②口 |----|
56
口口口口 |----|
口口口口 |----|
口口口口 |----|
口口口口 |----|
57
口口口口 |①---|
口口口口 |--②-|
口①①口 |----|
口②②口 |----|
58
口口口口 |----|
口口口口 |----|
口口口口 |----|
口口口口 |----|
59
③②②③ |①---②-|
④口口④ |--③---|
⑤①①⑤ |④---⑤-|
⑥口口⑥ |--⑥---|
60
③口口③ |①---|
口口口口 |--②-|
口②②口 |----|
口①①口 |③---|
61
口口口口 |----|
②口口① |----|
口口口口 |①---|
口口口口 |②---|
62
③口口③ |①---|
口口口口 |--②-|
口②②口 |----|
口①①口 |③---|
63
口口口口 |----|
①口口② |----|
口口口口 |①---|
口口口口 |②---|
64
③口口③ |①---|
口口口口 |--②-|
口②②口 |----|
口①①口 |③---|
65
口口口口 |----|
②口口① |----|
口口口口 |①---|
口口口口 |②---|
66
口①①口 |①---|
口②②口 |--②-|
口口口口 |----|
口③③口 |③---|
67
口口口口 |----|
口口口口 |----|
口口口口 |----|
口口口口 |----|
68
口⑤口口 |①---|
口③④① |②-③-|
口口②口 |--④-|
口口口口 |⑤---|
69
①口口② |----|
口口口口 |----|
口口口口 |①---|
口口口口 |②---|
70
口口⑤口 |①---|
口④③口 |②-③-|
①②口口 |--④-|
口口口口 |⑤---|
71
口口口口 |----|
②口口① |----|
口口口口 |①---|
口口口口 |②---|
72
口口口口 |①---|
口⑤口口 |②-③-|
口③④① |--④-|
口口②口 |⑤---|
73
①口口② |----|
口口口口 |----|
口口口口 |①---|
口口口口 |②---|
74
口④口口 |①---|
①口⑤口 |②-③-|
口口③口 |--④-|
口②口口 |⑤---|
75
口口口口 |----|
口口口口 |----|
②口口① |①---|
口口口口 |②---|
76
口⑤口口 |①---|
口③④① |②-③-|
口口②口 |--④-|
口口口口 |⑤---|
77
①口口② |----|
口口口口 |----|
口口口口 |①---|
口口口口 |②---|
78
口口⑤口 |①---|
口④③口 |②-③-|
①②口口 |--④-|
口口口口 |⑤---|
79
口口口口 |----|
②口口① |----|
口口口口 |①---|
口口口口 |②---|
80
口口口口 |①---|
口⑤口口 |②-③-|
口③④① |--④-|
口口②口 |⑤---|
81
①口口② |----|
口口口口 |----|
口口口口 |①---|
口口口口 |②---|
82
口口⑤口 |①---|
①④口口 |②-③-|
口口③口 |--④-|
口②口口 |⑤---|
83
口口口口 |----|
口口口口 |----|
口口口口 |----|
口口口口 |----|
84
①①①① |①---|
口口口口 |----|
口口口口 |----|
口口口口 |----|
85
口口口口 |----|
口口口口 |----|
口口口口 |----|
口口口口 |----|
86
口口口口 |①---|
口①①① |----|
口口口口 |----|
口口口口 |----|
87
口口口口 |----|
口口口口 |----|
口口口口 |----|
口口口口 |----|
88
口口口口 |①---|
口口口口 |----|
口口①① |----|
口口口口 |----|
89
口口口口 |----|
口口口口 |----|
口口口口 |----|
口口口口 |----|
90
口口口口 |①---|
口口口口 |----|
口口口口 |----|
口口口① |----|

最終更新:2012年11月06日 22:19