SEED
DJ YOSHITAKA

ADVANCED

Level: 8
BPM: 152
Notes: 699

1
口口口口 |----|
口口口口 |----|
口口口口 |----|
口口口口 |----|
2
⑤⑨⑦③ |①-②③|
口口口口 |--④⑤|
④⑧⑥② |--⑥⑦|
口①①口 |--⑧⑨|
3
口口口口 |--①②|
④⑧⑥② |--③④|
口口口口 |--⑤⑥|
③⑦⑤① |--⑦⑧|
4
⑥口口⑧ |--①②|
②口口④ |--③④|
口口口口 |--⑤⑥|
③⑦⑤① |--⑦⑧|
5
⑥口口⑧ |--①②|
②口口④ |--③④|
口口口口 |--⑤⑥|
③⑦⑤① |--⑦⑧|
6
口⑨④口 |①-②③|
②口口③ |--④⑤|
⑦①①⑥ |--⑥⑦|
口⑧⑤口 |--⑧⑨|
7
口⑧③口 |--①②|
①口口② |--③④|
⑥口口⑤ |--⑤⑥|
口⑦④口 |--⑦⑧|
8
口口口口 |--①②|
口②④口 |--③④|
口③①口
口口口口

口⑤口⑥
口口口口
⑧口⑦口 |--⑤⑥|
口口口口 |--⑦⑧|
9
④⑤④⑤ |①-②-|
⑥③⑥③ |③-④-|
⑦②⑦② |⑤-⑥-|
①⑧①⑧ |⑦-⑧-|
10
③③④④ |--①-|
⑦①口口 |②-③-|
口①口⑥ |--④-|
⑤口②口 |⑤-⑥⑦|
11
③③④④ |--①-|
口①口⑥ |②-③-|
⑦①口口 |--④-|
⑤口②口 |⑤-⑥⑦|
12
③③④④ |--①-|
⑦①口口 |②-③-|
口①口⑥ |--④-|
⑤口②口 |⑤-⑥⑦|
13
④④口口 |①-②-|
口口③③ |③-④-|
口②②口
口口①①

口口⑤⑤
⑥⑥口口
⑧口口⑦ |⑤-⑥-|
⑧口口⑦ |⑦-⑧-|
14
④④③③ |--①-|
口口①⑦ |②-③-|
⑥口①口 |--④-|
口②口⑤ |⑤-⑥⑦|
15
④④③③ |--①-|
⑥口①口 |②-③-|
口口①⑦ |--④-|
口②口⑤ |⑤-⑥⑦|
16
④④③③ |--①-|
口口①⑦ |②-③-|
⑥口①口 |--④-|
口②口⑤ |⑤-⑥⑦|
17
口口④④ |①-②-|
③③口口 |③-④-|
口②②口
①①口口

⑤⑤口口
口口⑥⑥
⑦⑧⑧⑦ |⑤-⑥-|
口口口口 |⑦-⑧-|
18
口③口口 |①-②-|
②口口口 |③-④-|
口口口口
①口④口

口口口口
口⑥⑨口
口口⑧⑤ |⑤-⑥-|
⑦口口口 |⑦-⑧⑨|
19
口口③口 |①-②-|
口口口② |③-④-|
口①口口
口④口口

口口口口
口⑧⑥口
⑤⑨口口 |⑤-⑥-|
口口口⑦ |⑦-⑧⑨|
20
口③口口 |①-②-|
②口口口 |③-④-|
口口①口
口口④口

口口口口
口⑥⑨口
口口⑧⑤ |⑤-⑥-|
⑦口口口 |⑦-⑧⑨|
21
④③⑤④ |①-②-|
②⑤⑥② |③-④-|
⑥⑦⑦③ |⑤-⑥-|
⑧①⑧① |⑦-⑧-|
22
④②⑥口 |①-②-|
②④口⑥ |③-④-|
⑤⑨⑧③ |⑤-⑥-|
⑦口口① |⑦-⑧⑨|
23
④②⑥口 |①-②-|
②④口⑥ |③-④-|
⑤⑨⑧③ |⑤-⑥-|
⑦口口① |⑦-⑧⑨|
24
②⑥⑥④ |①-②-|
口⑤⑤口 |③-④-|
③口口① |⑤---|
⑧⑤⑤⑦ |⑥-⑦⑧|
25
口⑤⑤口 |①---|
①②②① |②-③④|
口①①口 |⑤---|
⑥④③⑥ |⑥---|
26
②②口口 |①---|
③③口口 |----|
口口①① |----|
口口口口 |②-③-|
27
口口①① |----|
口口②② |①---|
口口③③ |②---|
口口口口 |③---|
28
②②口口 |①---|
口口口口 |--②-|
口口口口
①①口口

口口口口
口口口口
口口口口 |----|
③口口口 |--③-|
29
口②①口 |①-②-|
②口口① |--③-|
④口口③ |----|
口④③口 |④---|
30
②口口② |①---|
口口口口 |--②-|
口①①口 |----|
口口③③ |③---|
31
口③③口 |①---|
②②口口 |--②-|
口①①口 |----|
口口口口 |③---|
32
②口②口 |①---|
口口口口 |----|
口③口③ |----|
①口口① |②-③-|
33
口①口① |--①-|
②口②口 |--②-|
口口口口 |--③-|
口③口③ |----|
34
口⑤④② |①---|
⑤④口口 |②---|
①口口③ |③---|
①口口口 |④-⑤-|
35
①口③口 |--①-|
口口口③ |--②-|
②口口口 |--③-|
口口④④ |--④-|
36
口④③① |----|
④③口口 |①---|
口口口② |②---|
口口口口 |③-④-|
37
①口④口 |--①-|
口口口④ |--②-|
②口口口 |--③-|
口口③③ |--④-|
38
①④③① |----|
④③口口 |①---|
②口口② |②---|
口口口口 |③-④-|
39
①口③① |--①-|
口口口③ |--②-|
②口口② |--③-|
口口④④ |--④-|
40
①④③① |----|
④③口口 |①---|
②口口② |②---|
口口口口 |③-④-|
41
①口④① |--①-|
口口口④ |--②-|
②口口② |--③-|
口口③③ |--④-|
42
②口口② |①---|
口①①口 |②---|
口①①口
口口口口

口⑤④口
⑤④⑤④
③口口③ |③---|
口口口口 |④-⑤-|
43
①口③① |--①-|
口③口③ |--②-|
②口④② |--③-|
口④口④ |--④-|
44
①④③① |----|
④③④③ |①---|
②口口② |②---|
口口口口 |③-④-|
45
①口④① |--①-|
口④口④ |--②-|
②口③② |--③-|
口③口③ |--④-|
46
①③③② |----|
口口口口 |①---|
①④④② |②---|
④②①④ |③-④-|
47
①③③② |--①-|
口口口口 |--②-|
①④④② |--③-|
④②①④ |--④-|
48
①③③② |----|
②②①① |①---|
①④④② |②---|
④口口④ |③-④-|
49
①③③② |--①-|
②口口① |--②-|
①④④② |--③-|
④口口④ |--④-|
50
口口口口 |①---|
口①①口 |----|
口口口口 |----|
口①①口 |----|
51
④⑤⑤② |----|
口口口口 |--①-|
口口口口 |②-③-|
口③①口 |④-⑤-|
52
⑧口口⑧ |①--②|
②⑥⑥④ |③-④-|
①⑦⑦① |⑤⑥--|
②⑤③④ |⑦-⑧-|
53
⑧口口⑧ |①--②|
②⑥⑥④ |③-④-|
①⑦⑦① |⑤⑥--|
②⑤③④ |⑦-⑧-|
54
口①①口 |①--②|
②④口⑤ |③-④-|
口⑦⑦③ |⑤⑥--|
⑥⑧⑧口 |⑦-⑧-|
55
口①①口 |①--②|
②④口口 |③-④-|
口口口③
口口口口

口⑧⑧口
口口口⑤
口⑦⑦口 |⑤⑥--|
口⑥口口 |⑦-⑧-|
56
⑧口口⑧ |①--②|
口⑥⑥④ |③-④-|
①⑦⑦① |⑤⑥--|
②⑤③④ |⑦-⑧-|
57
⑧口口⑧ |①--②|
②⑥⑥④ |③-④-|
①⑦⑦① |⑤⑥--|
②⑤③④ |⑦-⑧-|
58
口①①口 |①--②|
②⑥⑥④ |③-④-|
②⑦⑦④ |⑤⑥--|
⑧⑤③⑧ |⑦-⑧-|
59
口①①口 |①--②|
②⑥⑥④ |③-④-|
②⑦⑦④ |⑤⑥--|
⑧⑤③⑧ |⑦-⑧-|
60
③①②④ |①②③④|
③⑥⑥④ |⑤-⑥-|
⑦⑩⑩⑧ |⑦⑧--|
⑨⑤⑤⑧ |⑨-⑩-|
61
④②①③ |①②③④|
④⑥⑥③ |⑤-⑥-|
⑧⑩⑩⑦ |⑦⑧--|
⑧⑤⑤⑨ |⑨-⑩-|
62
⑦⑦①① |①--②|
②②④④ |③-④-|
⑧⑧⑥⑥ |⑤⑥--|
口⑤③口 |⑦-⑧-|
63
⑧⑧①① |①--②|
②②④④ |③-④-|
⑦⑦⑥⑥ |⑤⑥--|
口⑤③口 |⑦-⑧-|
64
口口①① |①-②-|
④④②② |③-④-|
口口口口
③口③③

口口⑧⑧
口口口口
⑦⑦⑥⑥ |⑤⑥--|
口⑤口口 |⑦-⑧-|
65
①①口口 |①-②-|
②②④④ |③-④-|
口口口口
③③口③

⑧⑧口口
口口口口
⑥⑥⑦⑦ |⑤⑥--|
口口⑤口 |⑦-⑧-|
66
口⑦⑦口 |①--②|
①④⑥② |③-④-|
⑧③⑤⑧ |⑤⑥--|
①④⑥② |⑦-⑧-|
67
口⑧⑧口 |①--②|
①④⑥② |③-④-|
⑦③⑤⑦ |⑤⑥--|
①④⑥② |⑦-⑧-|
68
口口口口 |①---|
①口口① |----|
口口口口 |----|
①口口① |----|


不确定度: 0

最終更新:2012年12月27日 16:43