きみはキョンシー RAM RIDER REMIX
シトラスラベンダー

ADVANCED

Level: 6
BPM: 130
Notes: 389

1
口口口口 |----|
口口口口 |----|
口口口口 |----|
口口口口 |----|
2
①口口口 |①-②-|
口③④口 |③-④-|
⑥②口⑧ |⑤-⑥-|
⑤口口⑦ |⑦-⑧-|
3
口⑦口口 |--①-|
口⑥③口 |②-③-|
⑤口②口 |④-⑤-|
口④①口 |⑥-⑦-|
4
③口口口 |①-②-|
③口口口 |----|
口①②口 |----|
口口口口 |③---|
5
口口②口 |①-②-|
口①②口 |--③-|
口①口③ |----|
口口口③ |----|
6
①口口口 |①-②-|
口③④口 |③-④-|
⑥②口⑧ |⑤-⑥-|
⑤口口⑦ |⑦-⑧-|
7
口⑦口口 |--①-|
口⑥③口 |②-③-|
⑤口②口 |④-⑤-|
口④①口 |⑥-⑦-|
8
口口口④ |①-②-|
口口口口 |③-④-|
口口①口
②口口③

⑤⑥⑦口
⑥口口⑧
⑦口⑧口 |⑤-⑥-|
口⑧口口 |⑦-⑧-|
9
口口口口 |----|
口口口口 |----|
口口口口 |----|
口口口口 |----|
10
①口①口 |①-②-|
口②口口 |③-④-|
口③口口 |--⑤-|
④⑥⑤⑥ |--⑥-|
11
口口①口 |--①-|
口口口② |②-③-|
④口③口 |--④-|
口⑤口口 |⑤---|
12
口⑥①口 |①-②-|
口口④口 |③-④-|
⑤②⑤③ |--⑤-|
口口口口 |--⑥-|
13
口口口口 |--①-|
口①口② |②-③-|
口口③口 |④---|
⑤口口④ |⑤---|
14
①口①口 |①-②-|
口②口口 |③-④-|
口③口口 |--⑤-|
④⑥⑤⑥ |--⑥-|
15
口口①口 |--①-|
口口口② |②-③-|
④口③口 |--④-|
口⑤口口 |⑤---|
16
口⑥①口 |①-②-|
口口④口 |③-④-|
⑤②⑤③ |--⑤-|
口口口口 |--⑥-|
17
口口口口 |--①-|
口①口② |②-③-|
口口③口 |④---|
⑤口口④ |⑤---|
18
口①口口 |①---|
②口④口 |②-③-|
⑤③口口 |④---|
口口口口 |--⑤-|
19
①口②口 |--①-|
口口口口 |②-③-|
口口④口 |④---|
口③④⑤ |⑤---|
20
①口口口 |①---|
②④口口 |②---|
口口口口 |③---|
③口口口 |--④-|
21
口口口① |--①-|
口口口② |②-③-|
口口口③ |④---|
口口口④ |----|
22
①②口口 |①-②-|
口口③③ |③-④-|
口口④④
口口口口

⑥口口口
口口口口
口口口口 |⑤---|
口口⑤⑤ |--⑥-|
23
口口①② |--①-|
口口③④ |②-③-|
口口⑤⑥ |④-⑤-|
口口口口 |⑥---|
24
口口口口 |①---|
口口口口 |----|
口口口口 |----|
口①口① |----|
25
⑤④口口 |--①-|
④④③口 |②-③-|
口②⑥⑥ |④-⑤-|
①口⑥⑦ |⑥-⑦-|
26
口④④① |①---|
口③③② |②---|
②③③口 |③---|
①口口口 |--④-|
27
⑤口口口 |----|
④③①② |①-②-|
口口口口 |③-④-|
口口口口 |⑤---|
28
口①口口 |①---|
②④口口 |②---|
口口口口 |③---|
③口口口 |--④-|
29
口口口① |--①-|
口口口② |②-③-|
口口口③ |④---|
口口口④ |----|
30
①②口口 |①---|
口②口口 |②---|
口口口口
口口口口

④口③口
口口③口
口口③口 |③---|
口口口口 |--④-|
31
口口口① |--①-|
①②口② |--②-|
口③口③ |③---|
口口④④ |④---|
32
④⑤⑥③ |--①-|
⑤口口⑦ |②-③-|
⑥口⑦② |④-⑤-|
①⑦口口 |⑥-⑦-|
33
口口口口 |----|
口口口口 |----|
口口口口 |----|
口口口口 |----|
34
①口口⑤ |①---|
①口④口 |②---|
口②③口 |③-④-|
口②口口 |--⑤-|
35
①口口③ |--①-|
口口口③ |--②-|
口口②口 |③---|
口口②口 |----|
36
①口口口 |--①-|
口④⑤⑥ |②-③-|
②口口口 |④-⑤-|
③口口口 |--⑥-|
37
①口口③ |--①-|
①口口③ |--②-|
口②口口 |③---|
口②口口 |----|
38
①口口⑤ |①---|
①口④口 |②---|
口②③口 |③-④-|
口②口口 |--⑤-|
39
①口口③ |--①-|
口口口③ |--②-|
口口②口 |③---|
口口②口 |----|
40
①口口口 |--①-|
口④⑤⑥ |②-③-|
②口口口 |④-⑤-|
③口口口 |--⑥-|
41
①口口③ |--①-|
①口口③ |--②-|
口②口口 |③---|
口②口口 |----|
42
口①口口 |①---|
口①②② |--②-|
口①口口 |----|
口①口口 |----|
43
②①①口 |----|
②⑤④口 |①-②-|
③③④口 |③-④-|
口口口口 |--⑤-|
44
口口口口 |----|
口口口口 |----|
口口口口 |----|
口口口口 |----|
45
①口口③ |--①-|
①口口③ |--②-|
口口②口 |③---|
口口②口 |----|
46
口口①口 |①---|
②②①口 |--②-|
口口①口 |----|
口口①口 |----|
47
①②①口 |--①-|
口③口口 |②-③-|
口④口口 |④-⑤-|
⑥⑤⑥口 |--⑥-|
48
口口口口 |----|
口口口口 |----|
口口口口 |----|
口口口口 |----|
49
①口口③ |--①-|
①口口③ |--②-|
口口②口 |③---|
口口②口 |----|
50
①口口口 |①-②-|
⑥③④口 |③-④-|
口②口⑧ |⑤-⑥-|
⑤口口⑦ |-⑦⑧-|
51
口⑦口口 |--①-|
口⑥③口 |②-③-|
⑤口②口 |④-⑤-|
口④①口 |⑥-⑦-|
52
③口口口 |①-②-|
③口口口 |----|
口①②口 |----|
口口口口 |③---|
53
口口②口 |①-②-|
口①②口 |--③-|
口①口③ |----|
口口口③ |----|
54
①口口口 |①-②-|
⑥③④口 |③-④-|
口②口⑧ |⑤-⑥-|
⑤口口⑦ |-⑦⑧-|
55
口⑦口口 |--①-|
口⑥③口 |②-③-|
⑤口②口 |④-⑤-|
口④①口 |⑥-⑦-|
56
④⑤⑥③ |--①-|
⑤口口⑦ |②-③-|
⑥口⑦口 |④-⑤-|
①⑦口② |⑥-⑦-|
57
口口口口 |----|
口口口口 |----|
口口口口 |----|
口口口口 |----|
58
①口口口 |①-②-|
⑥③④口 |③-④-|
口②口⑧ |⑤-⑥-|
⑤口口⑦ |-⑦⑧-|
59
口⑦口口 |--①-|
口⑥③口 |②-③-|
⑤口②口 |④-⑤-|
口④①口 |⑥-⑦-|
60
③口口口 |①-②-|
③口口口 |----|
口①②口 |----|
口口口口 |③---|
61
口口②口 |①-②-|
口①②口 |--③-|
口①口③ |----|
口口口③ |----|
62
①口口口 |①-②-|
⑥③④口 |③-④-|
口②口⑧ |⑤-⑥-|
⑤口口⑦ |-⑦⑧-|
63
口⑦口口 |--①-|
口⑥③口 |②-③-|
⑤口②口 |④-⑤-|
口④①口 |⑥-⑦-|
64
④⑤⑥③ |--①-|
⑤口口⑦ |②-③-|
⑥口⑦口 |④-⑤-|
①⑦口② |⑥-⑦-|


不確定度: 0

最終更新:2013年05月27日 20:48