きみはキョンシー RAM RIDER REMIX
シトラスラベンダー

EXTREME

Level: 8
BPM: 130
Notes: 685

1
口口口口 |----|
口口口口 |----|
口口口口 |----|
口口口口 |----|
2
①口口口 |①-②-|
口口①口 |③-④-|
②口口④
口口③口

口口口口
口口⑨口
口⑧⑥⑩ |⑤-⑥-|
⑦口口⑤ |⑦⑧⑨⑩|
3
②口口⑥ |①-②-|
③⑨口口 |③-④-|
④口⑧口 |⑤-⑥-|
⑦⑤①口 |⑦⑧⑨-|
4
⑥②②④ |①-②-|
⑦⑤①① |③-④-|
⑦口口口 |⑤-⑥-|
口③口口 |⑦---|
5
口口②④ |①-②-|
口口②口 |--③-|
口①口③ |----|
口①口③ |④---|
6
①口口口 |①-②-|
口口①口 |③-④-|
②口口④
口口③口

口口口口
口口⑨口
口⑧⑥⑩ |⑤-⑥-|
⑦口口⑤ |⑦⑧⑨⑩|
7
②口口⑥ |①-②-|
③⑨口口 |③-④-|
④口⑧口 |⑤-⑥-|
⑦⑤①口 |⑦⑧⑨-|
8
口口口口 |①-②-|
口口口① |③-④-|
②②④③
口②口口

口⑤⑧口
⑤⑤⑦⑥
口口口口 |⑤-⑥-|
口口口口 |⑦-⑧-|
9
口⑤口口 |--①-|
⑧口④口 |②-③④|
⑦口③口 |⑤-⑥⑦|
⑥②口① |⑧---|
10
⑤口口① |①-②③|
口①⑤口 |④-⑤-|
④④口口
口口③②

口口⑨⑨
口⑧口口
口口⑦⑦ |⑥-⑦-|
口⑥口口 |⑧-⑨-|
11
④④口口 |①-②-|
口口⑥口 |③-④-|
口③⑧⑦ |⑤-⑥-|
②⑤口① |⑦-⑧-|
12
⑤口口① |①-②③|
口①⑤口 |④-⑤-|
④④口口
口口③②

口口⑨⑨
口⑧口口
口口⑦⑦ |⑥-⑦-|
口⑥口口 |⑧-⑨-|
13
口口口口 |①-②-|
④口⑤口 |③-④-|
口③⑦⑥ |⑤---|
②口口① |⑥-⑦-|
14
⑤口口① |①-②③|
口①⑤口 |④-⑤-|
④④口口
口口③②

口口⑨⑨
口⑧口口
口口⑦⑦ |⑥-⑦-|
口⑥口口 |⑧-⑨-|
15
④④口口 |①-②-|
口口⑥口 |③-④-|
口③⑧⑦ |⑤-⑥-|
②⑤口① |⑦-⑧-|
16
⑤口口① |①-②③|
口①⑤口 |④-⑤-|
④④口口
口口③②

口口⑨⑨
口⑧口口
口口⑦⑦ |⑥-⑦-|
口⑥口口 |⑧-⑨-|
17
口口口⑥ |①-②-|
④口⑤口 |③-④-|
口③口⑦ |⑤---|
②口口① |⑥-⑦-|
18
④⑧①⑧ |①-②-|
⑦③口③ |③-④-|
②⑥④口 |⑤-⑥-|
⑤①口⑤ |⑦-⑧-|
19
④口口口 |①-②-|
⑦③②口 |③-④-|
②⑥⑦③ |⑤-⑥-|
⑤①④⑤ |⑦---|
20
④⑧①⑧ |①-②-|
⑦③口③ |③-④-|
②⑥⑤口 |⑤-⑥-|
⑤①口口 |⑦-⑧-|
21
④口口口 |①-②-|
⑦③②口 |③-④-|
②⑥口③ |⑤-⑥-|
⑤①④⑤ |⑦---|
22
④⑧①⑧ |①-②-|
⑦③口② |③-④-|
②⑥③口 |⑤-⑥-|
⑤①⑤④ |⑦-⑧-|
23
④口口口 |①-②-|
⑦③②⑦ |③-④-|
②⑥⑥③ |⑤-⑥-|
⑤①④⑤ |⑦---|
24
②①①口 |①-②-|
⑧③口口 |③-④-|
④⑦口口 |⑤-⑥-|
⑥⑤口口 |⑦-⑧-|
25
口①②① |--①-|
口③①③ |②-③-|
口口口口
口口口口

⑤口口⑦
口口口口
④口口⑥ |④-⑤-|
④口口⑥ |⑥-⑦-|
26
④⑧①⑧ |①-②-|
⑦③口③ |③-④-|
②⑥④口 |⑤-⑥-|
⑤①口⑤ |⑦-⑧-|
27
④口口口 |①-②-|
⑦③②⑦ |③-④-|
②⑥⑥③ |⑤-⑥-|
⑤①④⑤ |⑦---|
28
④口①③ |①-②-|
口③④口 |③-④-|
②口口口
口①口口

口⑧口⑧
⑦口口口
口⑥口⑤ |⑤-⑥-|
⑤口口口 |⑦-⑧-|
29
④口口口 |①-②-|
⑦③②口 |③-④-|
②⑥口③ |⑤-⑥-|
⑤①④⑤ |⑦---|
30
④⑧①⑧ |①-②-|
⑦③口③ |③-④-|
②⑥④口 |⑤-⑥-|
⑤①口⑤ |⑦-⑧-|
31
④⑦口口 |①-②-|
⑥③②口 |③-④-|
②口口④ |⑤-⑥-|
⑤①⑤⑦ |⑦---|
32
口口口口 |①-②-|
口口口① |③-④-|
②②④③
口②口口

口⑤⑧口
⑤⑤⑦⑥
口口口口 |⑤-⑥-|
口口口口 |⑦-⑧-|
33
口⑤口口 |--①-|
⑧口④口 |②-③④|
⑦口③口 |⑤-⑥⑦|
⑥②口① |⑧---|
34
⑤口口① |①-②③|
口①⑤口 |④-⑤-|
④④口口
口口③②

口口⑨⑨
口⑧口⑥
口口⑦⑦ |⑥-⑦-|
口⑥口口 |⑧-⑨-|
35
④④口口 |①-②-|
口口⑥⑤ |③-④-|
口③⑧⑦ |⑤-⑥-|
②⑤口① |⑦-⑧-|
36
⑤口口① |①-②③|
口①⑤口 |④-⑤-|
④④口口
口口③②

口⑨⑨⑨
口⑧口口
口口⑦⑦ |⑥-⑦-|
⑥⑥口口 |⑧-⑨-|
37
口口口口 |①-②-|
④口⑤口 |③-④-|
口③⑧⑦ |⑤-⑥-|
②口⑥① |⑦-⑧-|
38
⑤口口① |①-②③|
口①⑤口 |④-⑤-|
④④口口
口口③②

口口⑨⑨
口⑧口⑥
口口⑦⑦ |⑥-⑦-|
口⑥口口 |⑧-⑨-|
39
④④口口 |①-②-|
口口⑥口 |③-④-|
口③口⑦ |⑤-⑥-|
②⑤口① |⑦---|
40
⑤口口① |①-②③|
口①⑤口 |④-⑤-|
④④口口
口口③②

口⑨⑨⑨
口⑧口口
口口⑦⑦ |⑥-⑦-|
⑥⑥口口 |⑧-⑨-|
41
口⑥口口 |①-②-|
④口⑤口 |③-④-|
口③口⑦ |⑤---|
②口口① |⑥-⑦-|
42
⑤口口① |①-②③|
口①⑤口 |④-⑤-|
④④口口
口口③②

口口⑨⑨
口⑧口口
口口⑦⑦ |⑥-⑦-|
口⑥口口 |⑧-⑨-|
43
④④口口 |①-②-|
口口⑥⑤ |③-④-|
口③⑧⑦ |⑤-⑥-|
②⑤口① |⑦-⑧-|
44
⑤口口① |①-②③|
口①⑤口 |④-⑤-|
④④口口
口口③②

口口⑨⑨
口⑧口口
口口⑦⑦ |⑥-⑦-|
口⑥口口 |⑧-⑨-|
45
口口口口 |①-②-|
④口⑤口 |③-④-|
口③口⑥ |⑤---|
②口口① |⑥---|
46
⑤口口① |①-②③|
口①⑤口 |④-⑤-|
④④口口
口口③②

口口⑨⑨
口⑧口口
口口⑦⑦ |⑥-⑦-|
口⑥口口 |⑧-⑨-|
47
④④口口 |①-②-|
口口⑥⑥ |③-④-|
口③⑧⑦ |⑤-⑥-|
②⑤口① |⑦-⑧-|
48
⑤口口① |①-②③|
口①⑤口 |④-⑤-|
④④口口
口口③②

口口⑨⑨
口⑧口口
口口⑦⑦ |⑥-⑦-|
口⑥口口 |⑧-⑨-|
49
口口口口 |①-②-|
④口口口 |③-④-|
口③口口
②口口①

口⑤口⑥
口口口口
口⑦口口 |⑤---|
口口口口 |⑥-⑦-|
50
①口口口 |①-②-|
口口①口 |③-④-|
②口口④
口口③口

口口口口
口口⑨口
口⑧⑥⑩ |⑤-⑥-|
⑦口口⑤ |⑦⑧⑨⑩|
51
②口口⑥ |①-②-|
③⑨口口 |③-④-|
④口⑧口 |⑤-⑥-|
⑦⑤①口 |⑦⑧⑨-|
52
⑥②②④ |①-②-|
⑦⑤①① |③-④-|
⑦口口口 |⑤-⑥-|
口③口口 |⑦---|
53
口口②④ |①-②-|
口口②口 |--③-|
口①口③ |----|
口①口③ |④---|
54
①口口口 |①-②-|
口口①口 |③-④-|
②口口④
口口③口

口口口口
口口⑨口
口⑧⑥⑩ |⑤-⑥-|
⑦口口⑤ |⑦⑧⑨⑩|
55
②口口⑥ |①-②-|
③⑨口口 |③-④-|
④口⑧口 |⑤-⑥-|
⑦⑤①口 |⑦⑧⑨-|
56
口口口口 |①-②-|
口口口① |③-④-|
②②④③
口②口口

口⑤⑧口
⑤⑤⑦⑥
口口口口 |⑤-⑥-|
口口口口 |⑦-⑧-|
57
口⑤口口 |--①-|
⑧口④口 |②-③④|
口⑦③口 |⑤-⑥⑦|
⑥②口① |⑧---|
58
①口口口 |①-②-|
口口①口 |③-④-|
②口口④
口口③口

口口口口
口口⑨口
口⑧⑥⑩ |⑤-⑥-|
⑦口口⑤ |⑦⑧⑨⑩|
59
②口口⑥ |①-②-|
③⑨口口 |③-④-|
④口⑧口 |⑤-⑥-|
⑦⑤①口 |⑦⑧⑨-|
60
⑥②②④ |①-②-|
⑦⑤①① |③-④-|
⑦口口口 |⑤-⑥-|
口③口口 |⑦---|
61
口口②④ |①-②-|
口口②口 |--③-|
口①口③ |----|
口①口③ |④---|
62
①口口口 |①-②-|
口口①口 |③-④-|
②口口④
口口③口

口口口口
口口⑨口
口⑧⑥⑩ |⑤-⑥-|
⑦口口⑤ |⑦⑧⑨⑩|
63
②口口⑥ |①-②-|
③⑨口口 |③-④-|
④口⑧口 |⑤-⑥-|
⑦⑤①口 |⑦⑧⑨-|
64
口口口口 |①-②-|
口口口① |③-④-|
②②④③
口②口口

口⑤⑧口
⑤⑤⑦⑥
口口口口 |⑤-⑥-|
口口口口 |⑦-⑧-|


不確定度: 0

最終更新:2013年05月27日 20:47