PRIME TIME
capsule

ADVANCED

Level: 7
BPM: 128
Notes: 631

1
口口口口 |----|
口口口口 |----|
口口口口 |----|
口口口口 |----|
2
①④④① |①---|
口口②② |②---|
①③口① |③---|
口③口口 |④---|
3
口③口口 |①---|
①③口口 |②---|
①口口口 |③---|
④④②② |④---|
4
口口口① |①---|
口口口① |②---|
口②②口
口口口口

口口口口
③口④④
③口口口 |③---|
口口口口 |④---|
5
口口②口 |①-②-|
③口口口 |③-④⑤|
口①口⑤
口口口④

口⑥口口
⑩⑦口⑩
口口⑧口 |-⑥⑦⑧|
⑨口口口 |⑨-⑩-|
6
①③③① |①--②|
口口口口 |--③-|
口口口口
口②②口

⑥口口⑥
口口⑤④
口口⑤④ |④--⑤|
口口口口 |--⑥-|
7
口口③口 |①-②③|
①②④口 |-④⑤-|
①②口口
口⑤⑤口

⑧口口⑧
⑦口口⑦
口口口口 |⑥--⑦|
⑥口口⑥ |--⑧-|
8
口①口⑦ |①-②③|
口③②⑦ |-④⑤-|
口口口口 |---⑥|
口⑤④⑥ |--⑦-|
9
③口④口 |①-②③|
②口⑤口 |-④⑤-|
口①①口
口口口口

口口口口
口⑦口口
口口⑥口 |---⑥|
口口口口 |--⑦-|
10
①③③① |①--②|
口口口口 |--③-|
口口口口
口②②口

⑥口口⑥
口口⑤④
口口⑤④ |④--⑤|
口口口口 |--⑥-|
11
口口③口 |①-②③|
①②④口 |-④⑤-|
①②口口
口⑤⑤口

⑧口口⑧
⑦口口⑦
口口口口 |⑥--⑦|
⑥口口⑥ |--⑧-|
12
口①口⑦ |①-②③|
口③②⑦ |-④⑤-|
口口口口 |---⑥|
口⑤④⑥ |--⑦-|
13
③口④口 |①-②③|
②口⑤口 |-④⑤-|
口①①口
口口口口

口口口口
口口口口
口⑧⑨口 |⑥-⑦-|
口⑥⑦口 |⑧-⑨-|
14
③①①④ |①---|
⑤②口口 |②-③④|
口⑥⑦口 |--⑤-|
口口口口 |⑥-⑦-|
15
口口口口 |①-②-|
口①①口 |③-④⑤|
④口口②
⑤口③口

口口口口
口口口口
口口口口 |--⑥-|
口⑦⑧⑥ |⑦-⑧-|
16
口①①口 |①---|
口③口口 |②-③④|
②④口口 |--⑤-|
口⑦⑥⑤ |⑥-⑦-|
17
④口口口 |①-②-|
⑤①①口 |③-④⑤|
②口口③ |--⑥-|
⑦⑧口⑥ |⑦-⑧-|
18
③①①④ |①---|
⑤②口口 |②-③④|
口⑥⑦口 |--⑤-|
口口口口 |⑥-⑦-|
19
口口口口 |①-②-|
口①①口 |③-④⑤|
④口口②
⑤口③口

口口口口
口口口口
口口口口 |--⑥-|
口⑦⑧⑥ |⑦-⑧-|
20
口①①口 |①---|
口③口口 |②-③④|
②④口口 |--⑤-|
口⑦⑥⑤ |⑥-⑦-|
21
④口口口 |①-②-|
⑤①①口 |③-④⑤|
②口⑧③ |--⑥-|
⑦口口⑥ |⑦-⑧-|
22
①③③① |①--②|
口口口口 |--③-|
口口口口
口②②口

⑥口口⑥
口口⑤④
口口⑤④ |④--⑤|
口口口口 |--⑥-|
23
口口③口 |①-②③|
①②④口 |-④⑤-|
①②口口
口⑤⑤口

⑧口口⑧
⑦口口⑦
口口口口 |⑥--⑦|
⑥口口⑥ |--⑧-|
24
口①口⑦ |①-②③|
口③②⑦ |-④⑤-|
口口口口 |---⑥|
口⑤④⑥ |--⑦-|
25
③口④口 |①-②③|
②口⑤口 |-④⑤-|
口①①口
口口口口

口口口口
口⑦口口
口口⑥口 |---⑥|
口口口口 |--⑦-|
26
①③③① |①--②|
口口口口 |--③-|
口口口口
口②②口

⑥口口⑥
口口⑤④
口口⑤④ |④--⑤|
口口口口 |--⑥-|
27
口口③口 |①-②③|
①②④口 |-④⑤-|
①②口口
口⑤⑤口

⑧口口⑧
⑦口口⑦
口口口口 |⑥--⑦|
⑥口口⑥ |--⑧-|
28
口①口⑦ |①-②③|
口③②⑦ |-④⑤-|
口口口口 |---⑥|
口⑤④⑥ |--⑦-|
29
③口④口 |①-②③|
②口⑤口 |-④⑤-|
口①①口
口口口口

口口口口
口口口口
口⑦⑦口 |⑥---|
⑦⑥⑥⑦ |⑦---|
30
③①①④ |①---|
⑤②口口 |②-③④|
口⑥⑦口 |--⑤-|
口口口口 |⑥-⑦-|
31
口口口口 |①-②-|
口①①口 |③-④⑤|
④口口②
⑤口③口

口口口口
口口口口
口口口口 |--⑥-|
口⑦⑧⑥ |⑦-⑧-|
32
口①①口 |①---|
口③口口 |②-③④|
②④口口 |--⑤-|
口⑦⑥⑤ |⑥-⑦-|
33
④口口口 |①-②-|
⑤①①口 |③-④⑤|
②口口③ |--⑥-|
⑦⑧口⑥ |⑦-⑧-|
34
③①①④ |①---|
⑤②口口 |②-③④|
口⑥⑦口 |--⑤-|
口口口口 |⑥-⑦-|
35
口口口口 |①-②-|
口①①口 |③-④⑤|
④口口②
⑤口③口

口口口口
口口口口
口口口口 |--⑥-|
口⑦⑧⑥ |⑦-⑧-|
36
口①①口 |①---|
口③口口 |②-③④|
②④口口 |--⑤-|
口⑦⑥⑤ |⑥-⑦-|
37
④口口口 |①-②-|
⑤①①口 |③-④⑤|
②口口③ |--⑥-|
⑦⑧口⑥ |⑦-⑧-|
38
⑤⑤④② |①-②-|
③③④② |③-④-|
①①⑧⑥ |⑤-⑥-|
⑦⑦⑧⑥ |⑦-⑧-|
39
⑦⑦②② |①-②-|
①③④④ |③-④-|
①③⑧⑥ |⑤-⑥-|
⑤⑤⑧⑥ |⑦-⑧-|
40
⑤⑤④② |①-②-|
③③④② |③-④-|
①①⑧⑥ |⑤-⑥-|
⑦⑦⑧⑥ |⑦-⑧-|
41
⑦⑦②② |①-②-|
①③④④ |③-④-|
①③⑧⑥ |⑤-⑥-|
⑤⑤⑧⑥ |⑦-⑧-|
42
⑦⑤③① |①-②-|
⑦⑤③① |③-④-|
②④⑥⑧ |⑤-⑥-|
②④⑥⑧ |⑦-⑧-|
43
⑦⑤③① |①-②-|
⑦⑤③① |③-④-|
②④⑥⑧ |⑤-⑥-|
②④⑥⑧ |⑦-⑧-|
44
⑤⑤①① |①-②-|
⑥⑥②② |③-④-|
④④⑧⑧ |⑤-⑥-|
③③⑦⑦ |⑦-⑧-|
45
⑥口口① |①-②-|
口⑤③口 |③-④-|
口④⑤口 |⑤---|
②口口⑥ |⑥---|
46
口②⑤口 |①---|
口口⑦口 |②-③-|
③⑥口④ |④-⑤-|
口①①口 |⑥-⑦-|
47
①口口① |①--②|
口口口口 |----|
②口口② |③--④|
③④④③ |----|
48
口①口口 |----|
口口③口 |①-②-|
口⑥②口 |③-④-|
口④⑤口 |⑤-⑥-|
49
①口口① |①--②|
②④④② |----|
口③③口 |③--④|
口口口口 |----|
50
口口口⑥ |----|
⑤口口③ |①-②-|
①口口口 |③-④-|
④口口② |⑤-⑥-|
51
口口口口 |①--②|
口①①口 |----|
②口口②
口口口口

口口口口
口口④口
口③③口 |③-④⑤|
⑤口口⑤ |----|
52
①口口⑥ |----|
口②口口 |①-②-|
口口③⑤ |③-④-|
口口口④ |⑤-⑥-|
53
口①①口 |①--②|
口口②口 |③--④|
口口口口
④③③口

口口口口
口⑤⑥口
口⑥⑤口 |⑤---|
口口口口 |⑥---|
54
口②⑤口 |①---|
口口⑦口 |②-③-|
③⑥口④ |④-⑤-|
口①①口 |⑥-⑦-|
55
①口口① |①--②|
口口口口 |----|
②口口② |③--④|
③④④③ |----|
56
口①口口 |----|
口口③口 |①-②-|
口⑥②口 |③-④-|
口④⑤口 |⑤-⑥-|
57
①口口① |①--②|
②④④② |----|
口③③口 |③--④|
口口口口 |----|
58
口口口⑥ |----|
⑤口口③ |①-②-|
①口口口 |③-④-|
④口口② |⑤-⑥-|
59
口口口口 |①--②|
口①①口 |----|
②口口②
口口口口

口口口口
口④口口
口③③口 |③-④⑤|
⑤口口⑤ |----|
60
⑥口口① |----|
口口②口 |①-②-|
⑤③口口 |③-④-|
④口口口 |⑤-⑥-|
61
口①①口 |①--②|
口②口口 |③--④|
口口口口
④③③口

口口口口
口⑥⑤口
口⑤⑥口 |⑤---|
口口口口 |⑥---|
62
②口口① |①---|
④口口③ |②---|
③口口④ |③---|
①口口② |④---|
63
④②①④ |①---|
口口口口 |②---|
口口口口 |③---|
③①②③ |④---|
64
⑩口⑪⑫ |①-②③|
①口②③ |④-⑤⑥|
④口⑤⑥ |⑦-⑧⑨|
⑦口⑧⑨ |⑩-⑪⑫|
65
口⑩⑩口 |①②③④|
①⑨⑨② |⑤⑥⑦⑧|
③⑩⑩④ |⑨---|
⑤⑦⑧⑥ |⑩---|


不確定度: 0

最終更新:2013年05月27日 19:45