PRIME TIME
capsule

EXTREME

Level: 9
BPM: 128
Notes: 901

1
口口口口 |----|
口口口口 |----|
口口口口 |----|
口口口口 |----|
2
④口口② |①-②-|
口①①口 |③-④-|
②③口④
①口③①

口⑥⑧口
口⑧⑥口
口口⑤口 |⑤-⑥-|
⑦⑤口⑦ |⑦-⑧-|
3
④⑥⑧② |①-②-|
①⑧⑥① |③-④-|
②③⑤④ |⑤-⑥-|
⑦⑤③⑦ |⑦-⑧-|
4
④⑥⑧② |①-②-|
①⑧⑥① |③-④-|
②③⑤④ |⑤-⑥-|
⑦⑤③⑦ |⑦-⑧-|
5
①④口① |①-②-|
②口口⑤ |③-④⑤|
④②口③
口③口口

⑨口⑥⑩
口⑨⑥口
口⑧口⑩ |-⑥⑦⑧|
⑦口⑦口 |⑨-⑩-|
6
口④④口 |①--②|
①⑤⑤① |--③-|
⑥口口⑥ |④--⑤|
②③③② |--⑥-|
7
①③②① |①-②③|
口口④口 |-④⑤-|
口⑤口口
口口口口

⑦⑧⑧⑦
⑥口口⑥
口口口口 |⑥--⑦|
口口口口 |--⑧-|
8
口口口口 |①-②③|
口①①口 |-④⑤-|
口②③口
④⑤⑤④

口口口口
口口⑦口
⑥口口⑥ |---⑥|
口口口口 |--⑦-|
9
口口④口 |①-②③|
⑤③口⑤ |-④⑤-|
口①②口
口口口口

口口口口
口口口口
⑥⑦口⑥ |---⑥|
口口口口 |--⑦-|
10
口④④口 |①--②|
①⑤⑤① |--③-|
⑥口口⑥ |④--⑤|
②③③② |--⑥-|
11
①③②① |①-②③|
口口④口 |-④⑤-|
口⑤口口
口口口口

⑦⑧⑧⑦
⑥口口⑥
口口口口 |⑥--⑦|
口口口口 |--⑧-|
12
口口口口 |①-②③|
口①①口 |-④⑤-|
口②③口
④⑤⑤④

口口口口
口口⑦口
⑥口口⑥ |---⑥|
口口口口 |--⑦-|
13
口口④口 |①-②③|
⑤③口⑤ |-④⑤-|
口①②口
口口口口

⑥口口⑧
口⑨⑨口
⑧口口⑥ |⑥-⑦-|
口⑦⑦口 |⑧-⑨-|
14
⑦①③⑤ |①---|
口⑥⑥口 |②-③④|
⑤③①⑦ |--⑤-|
②④④② |⑥-⑦-|
15
⑦⑥①⑦ |①-②③|
⑧口口⑨ |④-⑤⑥|
⑨⑥①⑧ |--⑦-|
③⑤②④ |⑧-⑨-|
16
⑦①③⑤ |①---|
口⑥⑥口 |②-③④|
⑤③①⑦ |--⑤-|
②④④② |⑥-⑦-|
17
⑦⑥①⑦ |①-②③|
⑧口口⑨ |④-⑤⑥|
⑨⑥①⑧ |--⑦-|
③⑤②④ |⑧-⑨-|
18
⑦①③⑤ |①---|
口⑥⑥口 |②-③④|
⑤③①⑦ |--⑤-|
②④④② |⑥-⑦-|
19
⑦⑥①⑦ |①-②③|
⑧口口⑨ |④-⑤⑥|
⑨⑥①⑧ |--⑦-|
③⑤②④ |⑧-⑨-|
20
⑦①③⑤ |①---|
口⑥⑥口 |②-③④|
⑤③①⑦ |--⑤-|
②④④② |⑥-⑦-|
21
⑧⑥①⑧ |①-②③|
⑨⑦⑦⑩ |④-⑤⑥|
⑩⑥①⑨ |-⑦⑧-|
③⑤②④ |⑨-⑩-|
22
口③口口 |①--②|
③口口口 |--③-|
口②②口
①口口①

口口⑥④
口口口⑥
口口口④ |④--⑤|
口⑤口⑤ |--⑥-|
23
①④口口 |①-②③|
口口口口 |-④⑤-|
①③⑤口
②口②口

⑦⑧⑧⑥
⑥⑦⑥⑦
口口口口 |⑥--⑦|
口口口口 |--⑧-|
24
⑧⑧⑦⑦ |①-②③|
口⑥口口 |-④⑤-|
①③②① |⑥--⑦|
⑤⑦⑧④ |--⑧-|
25
口口⑥口 |①-②③|
④⑧⑦③ |-④⑤-|
②①①⑤ |⑥--⑦|
口⑦⑧口 |--⑧-|
26
口③口口 |①--②|
③口口口 |--③-|
口②②口
①口口①

口口⑥④
口口口⑥
口口口④ |④--⑤|
口⑤口⑤ |--⑥-|
27
①④口口 |①-②③|
口口口口 |-④⑤-|
①③⑤口
②口②口

⑦⑧⑧⑥
⑥⑦⑥⑦
口口口口 |⑥--⑦|
口口口口 |--⑧-|
28
⑧⑧⑦⑦ |①-②③|
口⑥口口 |-④⑤-|
①③②① |⑥--⑦|
⑤⑦⑧④ |--⑧-|
29
口口口口 |①-②③|
④口口③ |-④⑤-|
②①①⑤
口口口口

⑥口⑦⑥
口⑥⑥⑦
⑦口口口 |⑥---|
口⑦口口 |⑦---|
30
⑦①③⑤ |①---|
口⑥⑥口 |②-③④|
⑤③①⑦ |--⑤-|
②④④② |⑥-⑦-|
31
⑦⑥①⑦ |①-②③|
⑧口口⑨ |④-⑤⑥|
⑨⑥①⑧ |--⑦-|
③⑤②④ |⑧-⑨-|
32
⑦①③⑤ |①---|
口⑥⑥口 |②-③④|
⑤③①⑦ |--⑤-|
②④④② |⑥-⑦-|
33
⑦⑥①⑦ |①-②③|
⑧口口⑨ |④-⑤⑥|
⑨⑥①⑧ |--⑦-|
③⑤②④ |⑧-⑨-|
34
⑦①③⑤ |①---|
口⑥⑥口 |②-③④|
⑤③①⑦ |--⑤-|
②④④② |⑥-⑦-|
35
⑦⑥①⑦ |①-②③|
⑧口口⑨ |④-⑤⑥|
⑨⑥①⑧ |--⑦-|
③⑤②④ |⑧-⑨-|
36
⑦①③⑤ |①---|
口⑥⑥口 |②-③④|
⑤③①⑦ |--⑤-|
②④④② |⑥-⑦-|
37
⑧⑥①⑧ |①-②③|
⑨⑦⑦⑩ |④-⑤⑥|
⑩⑥①⑨ |-⑦⑧-|
③⑤②④ |⑨-⑩-|
38
③⑤⑧④ |①-②-|
⑦④③⑥ |③-④-|
⑤②①⑧ |⑤-⑥-|
①⑦⑥② |⑦-⑧-|
39
③⑤⑧④ |①-②-|
⑦④③⑥ |③-④-|
⑤②①⑧ |⑤-⑥-|
①⑦⑥② |⑦-⑧-|
40
③⑤⑧④ |①-②-|
⑦④③⑥ |③-④-|
⑤②①⑧ |⑤-⑥-|
①⑦⑥② |⑦-⑧-|
41
③⑤⑧④ |①-②-|
⑦④③⑥ |③-④-|
⑤②①⑧ |⑤-⑥-|
①⑦⑥② |⑦-⑧-|
42
①③口口 |①-②-|
④口②口 |③-④-|
口口口口
②④③①

⑦口⑥口
口⑦口⑤
⑤⑥⑧口 |⑤-⑥-|
⑧口口口 |⑦-⑧-|
43
口②④④ |①-②-|
①口①口 |③-④-|
口口口②
口③口③

口口口口
⑧⑧⑦⑤
⑤⑦⑥口 |⑤-⑥-|
⑥口口口 |⑦-⑧-|
44
口口②口 |①-②-|
口口口口 |③-④-|
④口③③
④②①①

⑤⑥口口
口⑤⑧⑦
口⑦口口 |⑤-⑥-|
口口⑥⑧ |⑦-⑧-|
45
④口口① |①-②-|
口②口④ |③-④-|
①口口②
③③口口

口⑤⑨口
口口⑦口
⑧⑩口⑪ |⑤⑥⑦⑧|
⑫口口⑥ |⑨⑩⑪⑫|
46
口②口口 |①---|
①③③① |②-③-|
口口②口
口①①口

⑤⑦⑦⑤
口口口口
⑥口口④ |④-⑤-|
④口口⑥ |⑥-⑦-|
47
口④③口 |①--②|
②①①② |----|
④口口③ |③--④|
③②②④ |----|
48
口②③口 |①---|
口①①口 |②-③-|
③口口②
口①①口

口口口口
⑥口口⑥
口④⑤口 |④-⑤-|
⑤⑦⑦④ |⑥-⑦-|
49
④①②③ |①--②|
口②①口 |----|
④口口③ |③--④|
口③④口 |----|
50
②口口③ |①---|
口①①口 |②-③-|
口口口口
口口口口

口④⑤口
⑥⑦⑦⑥
口⑤④口 |④-⑤-|
口口口口 |⑥-⑦-|
51
①口口① |①--②|
口③③口 |----|
②④④② |③-④⑤|
⑤②②⑤ |----|
52
④口口④ |①---|
⑥⑤⑤② |②-③-|
②③③⑥ |④-⑤-|
⑦①①⑦ |⑥-⑦-|
53
⑧①①⑧ |①--②|
④⑦⑦② |③--④|
③⑥⑥口 |⑤-⑥-|
⑤口口⑤ |⑦-⑧-|
54
口②口口 |①---|
①③③① |②-③-|
口口②口
口①①口

⑤⑦⑦⑤
口口口口
⑥口口④ |④-⑤-|
④口口⑥ |⑥-⑦-|
55
口④③口 |①--②|
②①①② |----|
④口口③ |③--④|
③②②④ |----|
56
口②③口 |①---|
口①①口 |②-③-|
③口口②
口①①口

口口口口
⑥口口⑥
口④⑤口 |④-⑤-|
⑤⑦⑦④ |⑥-⑦-|
57
④①②③ |①--②|
口②①口 |----|
④口口③ |③--④|
口③④口 |----|
58
②口口③ |①---|
口①①口 |②-③-|
口口口口
口口口口

口④⑤口
⑥⑦⑦⑥
口⑤④口 |④-⑤-|
口口口口 |⑥-⑦-|
59
①口口① |①--②|
口③③口 |----|
②④④② |③-④⑤|
⑤②②⑤ |----|
60
④口口④ |①---|
⑥⑤⑤② |②-③-|
②③③⑥ |④-⑤-|
⑦①①⑦ |⑥-⑦-|
61
⑤①①⑤ |①--②|
④⑤⑤② |③--④|
③口口口 |⑤---|
⑥⑥⑥⑥ |⑥---|
62
口口①② |①-②③|
口口口③ |④-⑤-|
④①口④
口⑤⑤口

口⑥口⑧
⑨口口⑨
⑩⑩⑥口 |⑥-⑦⑧|
⑦口口口 |⑨-⑩-|
63
①④④口 |①-②③|
⑤①口⑤ |④-⑤-|
口口③②
口口①①

⑩⑩口⑥
口口⑥口
⑧⑨⑨口 |⑥-⑦⑧|
⑥⑥口⑦ |⑨-⑩-|
64
口口④口 |①-②③|
口口④① |④-⑤⑥|
口口口①
②③⑥⑤

口⑦口⑩
口⑦口⑩
⑧⑨⑫⑪ |⑦-⑧⑨|
口口口口 |⑩-⑪⑫|
65
①③口⑥ |①②③④|
①⑦④口 |⑤⑥⑦⑧|
口口口⑧
⑤口口②

口⑩⑨口
⑩口口⑨
口⑨⑩口 |⑨---|
口⑩⑨口 |⑩---|


不確定度: 0

最終更新:2013年05月27日 19:37