PRANA
TAG

ADVANCED

Level: 8
BPM: 188
Notes: 530

1
口口口口 |----|
口口口口 |----|
口口口口 |----|
口口口口 |----|
2
口③口口 |①---|
①口口① |--②-|
①口口① |----|
口②口口 |③---|
3
口口口③ |--①-|
口口口口 |----|
①口口② |②---|
口口口口 |③---|
4
口③口口 |①---|
口口口口 |--②-|
口①口口 |----|
口②口口 |③---|
5
口口口③ |--①-|
口口口口 |----|
①口口② |②---|
口口口口 |③---|
6
口③口口 |①---|
口口口口 |--②-|
口①口口 |----|
口②口口 |③---|
7
口口口③ |--①-|
口口口口 |----|
①口口② |②---|
口口口口 |③---|
8
⑧④④口 |①-②-|
⑦③口⑦ |③-④-|
⑥②口口 |⑤-⑥-|
⑤①①口 |⑦-⑧-|
9
口②②口 |①---|
⑤口口⑤ |②---|
④口口④ |③--④|
③①①③ |--⑤-|
10
④口③口 |①---|
口②口口 |--②-|
口①①口 |--③-|
④③②口 |--④-|
11
口口口① |--①-|
③口口③ |----|
②口口② |②---|
口口口① |③---|
12
④口③口 |①---|
口②口口 |--②-|
口①①口 |--③-|
④③②口 |--④-|
13
口口口① |--①-|
②口口② |----|
③口口③ |②---|
口口口① |③---|
14
④口③口 |①---|
口②口口 |--②-|
口①①口 |--③-|
④③②口 |--④-|
15
口口口① |--①-|
口③③口 |----|
口口口口 |②---|
口②②① |③---|
16
①②口① |①---|
口口口口 |--②-|
口口口口
口②口口

④口③口
口口口口
口口口口 |--③-|
④口③口 |--④-|
17
口②③① |--①-|
口口口口 |--②-|
口口口口 |--③-|
口②③① |----|
18
④口③口 |①---|
口②口口 |--②-|
①口②① |--③-|
④③口口 |--④-|
19
口口口① |--①-|
③口口③ |----|
②口口② |②---|
口口口① |③---|
20
④口③口 |①---|
口②口口 |--②-|
口①①口 |--③-|
④③②口 |--④-|
21
口口口① |--①-|
②口口② |----|
③口口③ |②---|
口口口① |③---|
22
④口③口 |①---|
口②口口 |--②-|
口①①口 |--③-|
④③②口 |--④-|
23
口口口① |--①-|
口③③口 |----|
口口口口 |②---|
口②②① |③---|
24
①②口① |①---|
口口口口 |--②-|
口口口口
口②口口

④口③口
口口口口
口口口口 |--③-|
④口③口 |--④-|
25
口②③① |--①-|
口口口口 |--②-|
口口口口 |--③-|
口②③① |----|
26
口口口口 |①---|
①①口② |②---|
③③口④ |③---|
口口口口 |④---|
27
①①口② |①---|
口③口口 |②-③-|
口口口口 |④---|
④口⑤⑤ |⑤---|
28
口①口口 |①---|
①口口② |②---|
③③口④ |③---|
口口口口 |④---|
29
①①口② |①---|
口③口口 |②-③-|
口口⑤口 |④-⑤-|
④⑦口⑥ |⑥-⑦-|
30
①口口口 |①---|
①口口② |②---|
③③口④ |③---|
口口口口 |④---|
31
①①口② |①---|
口③口口 |②-③-|
口口口口 |④---|
④口⑤⑤ |⑤---|
32
口口②口 |①-②-|
①⑥口③ |③---|
④④口⑤ |④---|
口口口口 |⑤-⑥-|
33
①口②② |①---|
口口口口 |②---|
口③④⑤ |--③-|
口口口口 |④-⑤-|
34
⑤口口⑥ |①--②|
口口口口 |--③-|
口口口口 |-④--|
①②③④ |⑤-⑥-|
35
⑥口口⑤ |①--②|
口口口口 |--③-|
④③②① |-④--|
口口口口 |⑤-⑥-|
36
⑤口口⑥ |①--②|
口口口口 |--③-|
口口口口 |-④--|
①②③④ |⑤-⑥-|
37
⑥口口⑤ |①--②|
口口口口 |--③-|
④③②① |-④--|
口口口口 |⑤-⑥-|
38
⑤口口⑥ |①--②|
口口口口 |--③-|
口口口口 |-④--|
①②③④ |⑤-⑥-|
39
⑥口口⑤ |①--②|
口口口口 |--③-|
④③②① |-④--|
口口口口 |⑤-⑥-|
40
⑤口口⑥ |①--②|
口口口口 |--③-|
口口口口 |-④--|
①②③④ |⑤-⑥-|
41
⑥口口⑤ |①--②|
口口口口 |--③-|
④③②① |-④--|
口口口口 |⑤-⑥-|
42
口④③口 |①-②-|
②口口⑦ |③④--|
口口口⑥ |⑤--⑥|
①口口⑤ |--⑦-|
43
口④③口 |①-②-|
口②⑦口 |③④--|
口口⑥口 |⑤--⑥|
口①⑤口 |--⑦-|
44
口④③口 |①-②-|
②口口⑦ |③④--|
口口口⑥ |⑤--⑥|
①口口⑤ |--⑦-|
45
口④③口 |①-②-|
口②⑦口 |③④--|
口口⑥口 |⑤--⑥|
口①⑤口 |--⑦-|
46
口④③口 |①-②-|
②口口⑦ |③④--|
口口口⑥ |⑤--⑥|
①口口⑤ |--⑦-|
47
口④③口 |①-②-|
口②⑦口 |③④--|
口口⑥口 |⑤--⑥|
口①⑤口 |--⑦-|
48
口④③口 |①-②-|
②口口⑦ |③④--|
口口口⑥ |⑤--⑥|
①口口⑤ |--⑦-|
49
口④③口 |①-②-|
口②⑦口 |③④--|
口口⑥口 |⑤--⑥|
口①⑤口 |--⑦-|
50
口③口口 |①---|
①口口① |--②-|
①口④① |--③-|
口②口口 |--④-|
51
口口口口 |①---|
口口口口 |----|
口口口① |----|
口口口口 |----|
52
①③口① |①---|
①口口① |--②-|
口口④口 |--③-|
口②口口 |--④-|
53
口口口口 |①---|
口口口口 |----|
口口口① |----|
口口口口 |----|
54
口③口口 |①---|
①口口① |--②-|
①口④① |--③-|
口②口口 |--④-|
55
口③口口 |①---|
①口口① |--②-|
①口④① |--③-|
口②口口 |--④-|
56
口口⑤口 |①---|
②④③① |②---|
②⑤口① |③---|
口③④口 |④-⑤-|
57
①③口② |--①-|
口口口口 |--②-|
口口口口 |--③-|
①③口② |----|
58
④口③口 |①---|
口②口口 |--②-|
口①①口 |--③-|
④③②口 |--④-|
59
口口口① |--①-|
③口口③ |----|
②口口② |②---|
口口口① |③---|
60
④口③口 |①---|
口②口口 |--②-|
口①①口 |--③-|
④③②口 |--④-|
61
口口口① |--①-|
②口口② |----|
③口口③ |②---|
口口口① |③---|
62
④口③口 |①---|
口②口口 |--②-|
口①①口 |--③-|
④③②口 |--④-|
63
口口口① |--①-|
口③③口 |----|
口口口口 |②---|
口②②① |③---|
64
①②口① |①---|
口口口口 |--②-|
口口口口
口②口口

④口③口
口口口口
口口口口 |--③-|
④口③口 |--④-|
65
口③⑤① |--①-|
口④⑥② |②-③-|
口口口口 |④-⑤-|
口③⑤① |⑥---|
66
⑤口口⑥ |①--②|
口口口口 |--③-|
①②③④ |-④--|
口口口口 |⑤-⑥-|
67
口口④口 |----|
口②口口 |--①-|
口口口口 |②--③|
口①③口 |--④-|
68
⑥口口⑤ |①--②|
口口口口 |--③-|
④③②① |-④--|
口口口口 |⑤-⑥-|
69
口口④口 |----|
口②口口 |--①-|
口口口口 |②--③|
口①③口 |--④-|
70
⑤口口⑥ |①--②|
口口口口 |--③-|
①②③④ |-④--|
口口口口 |⑤-⑥-|
71
口口④口 |----|
口②口口 |--①-|
口口口口 |②--③|
口①③口 |--④-|
72
⑥口口⑤ |①--②|
口口口口 |--③-|
④③②① |-④--|
口口口口 |⑤-⑥-|
73
口口④口 |----|
口②口口 |--①-|
口口口口 |②--③|
口①③口 |--④-|
74
⑤口口⑥ |①--②|
口口③④ |--③-|
①②③④ |-④--|
①②口口 |⑤-⑥-|
75
口口⑦口 |①--②|
口④口⑤ |--③-|
口②③口 |④⑤-⑥|
①③⑥口 |--⑦-|
76
⑥口口⑤ |①--②|
口口③④ |--③-|
④③②① |-④--|
①②口口 |⑤-⑥-|
77
口口⑦口 |①--②|
口④口⑤ |--③-|
口②③口 |④⑤-⑥|
①③⑥口 |--⑦-|
78
⑤口口⑥ |①--②|
口口③④ |--③-|
①②③④ |-④--|
①②口口 |⑤-⑥-|
79
口口⑦口 |①--②|
口④口⑤ |--③-|
口②③口 |④⑤-⑥|
①③⑥口 |--⑦-|
80
⑥口口⑤ |①--②|
口口③④ |--③-|
④③②① |-④--|
①②口口 |⑤-⑥-|
81
口⑤⑥口 |①--②|
口⑦⑧④ |--③-|
口②③口 |-④--|
①口口口 |⑤⑥⑦⑧|
82
口口口口 |①---|
口口口口 |----|
①口口① |----|
口口口口 |----|


不确定度: 0

最終更新:2012年11月27日 22:17