PASSPORT
MEG

ADVANCED

Level: 5
BPM: 137
Notes: 428

1
口口口口 |----|
口口口口 |----|
口口口口 |----|
口口口口 |----|
2
口口口口 |----|
口口口口 |----|
口口口口 |----|
口口口口 |----|
3
⑦口口口 |①-②-|
⑥口口口 |③-④-|
⑤口口口 |--⑤-|
④③②① |⑥-⑦-|
4
口口口① |--①-|
口口口② |②-③-|
口口口③
口口口口

口口⑤⑤
口④口⑥
⑥口④口 |--④-|
⑤⑤口口 |⑤-⑥-|
5
口③④口 |--①-|
口②⑤口 |②-③-|
口①⑥口 |--④-|
口口口口 |⑤-⑥-|
6
③③②口 |--①-|
①⑤口④ |②-③-|
④口⑤① |--④-|
口②③③ |--⑤-|
7
④口口③ |--①-|
⑤口口② |②-③-|
⑥口口① |--④-|
口口口口 |⑤-⑥-|
8
口⑥⑥⑥ |--①-|
口口口口 |②-③-|
口⑤④口 |--④-|
口①②③ |⑤-⑥-|
9
口口口口 |----|
口口口口 |--①-|
②②②口 |----|
①①①口 |--②-|
10
②②②口 |----|
口口③口 |--①-|
口口口口 |--②-|
①①①口 |--③-|
11
⑥口口口 |--①-|
⑤口口口 |②-③-|
④口口口 |--④-|
③②①口 |⑤-⑥-|
12
口口口① |--①-|
口口口② |②-③-|
口口口③
口口口口

口口⑤⑤
口④口⑥
⑥口④口 |--④-|
⑤⑤口口 |⑤-⑥-|
13
口③④口 |--①-|
口②⑤口 |②-③-|
口①⑥口 |--④-|
口口口口 |⑤-⑥-|
14
③③②口 |--①-|
①⑤口④ |②-③-|
④口⑤① |--④-|
口②③③ |--⑤-|
15
④口口③ |--①-|
⑤口口② |②-③-|
⑥口口① |--④-|
口口口口 |⑤-⑥-|
16
口⑥⑥⑥ |--①-|
口口口口 |②-③-|
口⑤④口 |--④-|
口①②③ |⑤-⑥-|
17
口口口口 |----|
口口口口 |--①-|
②②②口 |----|
①①①口 |--②-|
18
口②口④ |----|
①③④口 |--①-|
口④③① |--②-|
④口②口 |③-④-|
19
口口口② |----|
口口口口 |----|
口①口① |①---|
口口口口 |②---|
20
口③口口 |①---|
口口口① |----|
口②口② |②---|
口口口口 |③---|
21
口口③口 |①---|
口①口口 |----|
②口②口 |②---|
口口口口 |③---|
22
③口口口 |①---|
口口①口 |----|
②口②口 |②---|
口口口口 |③---|
23
口口口③ |①---|
①口口口 |----|
口②口② |②---|
口口口口 |③---|
24
口③口口 |①---|
口口口① |----|
口②口② |②---|
口口口口 |③---|
25
口口③口 |①---|
口①口口 |----|
②口②口 |②---|
口口口口 |③---|
26
③口口口 |①---|
口口①口 |----|
②口②口 |②---|
口口口口 |③---|
27
口口口口 |①---|
③①①② |----|
②口口③ |②-③-|
口口④④ |--④-|
28
③③④④ |--①-|
④④②② |--②-|
①①口口 |--③-|
口口口口 |--④-|
29
口③口口 |----|
口口②口 |----|
口①口口 |--①-|
口口口口 |②-③-|
30
④口口口 |--①-|
③口口口 |--②-|
②口口口 |--③-|
①口口口 |--④-|
31
口口口口 |----|
口③③口 |----|
口②①口 |①-②-|
口口口口 |--③-|
32
口②②口 |--①-|
④口口④ |--②-|
口③③口 |--③-|
口①①口 |--④-|
33
口②③① |----|
口②③① |----|
口口口口 |--①-|
口口口口 |②-③-|
34
①口口② |--①-|
①口口② |--②-|
口口口口
口口口口

⑤③④口
⑤③④口
口口口口 |--③-|
口口口口 |④-⑤-|
35
口口①口 |----|
口口②口 |----|
口口③口 |--①-|
口口口口 |②-③-|
36
口③口③ |--①-|
口①口① |--②-|
口④口④ |--③-|
口②口② |--④-|
37
口③②③ |----|
④口④口 |①-②-|
口口①口 |--③-|
口口口口 |--④-|
38
口口口口 |--①-|
口口口口 |--②-|
口④口③ |--③-|
口②口① |--④-|
39
口口口口 |①---|
口口①口 |----|
口口口口
口口口口

口口②口
口口③口
口口④口 |--②-|
口口口口 |③-④-|
40
口③口③ |--①-|
口①口① |--②-|
口④口④ |--③-|
口②口② |--④-|
41
口②口口 |----|
①①口口 |①-②-|
口口③③ |----|
口口④口 |③-④-|
42
口口④③ |----|
口口①② |----|
口口口口 |①-②-|
口口口口 |③-④-|
43
①②口⑤ |①---|
①③口口 |②-③-|
口口口④ |--④-|
口口口口 |--⑤-|
44
口口口口 |----|
口口口口 |----|
③④口口 |①-②-|
②①口口 |③-④-|
45
口口口口 |①---|
口口口口 |②-③-|
口口③①
口口②①

口口口口
口口口④
口口口口 |--④-|
口口口⑤ |--⑤-|
46
③④口口 |----|
②①口口 |----|
口口口口 |①-②-|
口口口口 |③-④-|
47
口口③① |①---|
口口②① |②-③-|
口口口口
口口口口

口口口口
口口⑤口
口口口④ |--④-|
口口口口 |--⑤-|
48
口口口① |--①-|
口⑤口口 |--②-|
口口④口 |--③-|
口②②③ |④-⑤-|
49
口口口口 |--①-|
口口③口 |②-③-|
口②口口
①口口口

口口口⑥
⑤④口口
口口④⑤ |--④-|
⑥口口口 |⑤-⑥-|
50
口口口口 |----|
口②①口 |----|
口①②口 |①---|
口口口口 |②---|
51
⑦口口口 |①-②-|
⑥口口口 |③-④-|
⑤口口口 |--⑤-|
④③②① |⑥-⑦-|
52
口口口① |--①-|
口口口② |②-③-|
口口口③
口口口口

口口⑤⑤
口④口⑥
⑥口④口 |--④-|
⑤⑤口口 |⑤-⑥-|
53
口③④口 |--①-|
口②⑤口 |②-③-|
口①⑥口 |--④-|
口口口口 |⑤-⑥-|
54
③③②口 |--①-|
①⑤口④ |②-③-|
④口⑤① |--④-|
口②③③ |--⑤-|
55
④口口③ |--①-|
⑤口口② |②-③-|
⑥口口① |--④-|
口口口口 |⑤-⑥-|
56
口⑥⑥⑥ |--①-|
口口口口 |②-③-|
口⑤④口 |--④-|
口①②③ |⑤-⑥-|
57
口口口口 |----|
口口口口 |--①-|
②②②口 |----|
①①①口 |--②-|
58
②②②口 |----|
口口③口 |--①-|
口口口口 |--②-|
①①①口 |--③-|
59
⑥口口口 |--①-|
⑤口口口 |②-③-|
④口口口 |--④-|
③②①口 |⑤-⑥-|
60
口口口① |--①-|
口口口② |②-③-|
口口口③
口口口口

口口⑤⑤
口④口⑥
⑥口④口 |--④-|
⑤⑤口口 |⑤-⑥-|
61
口③④口 |--①-|
口②⑤口 |②-③-|
口①⑥口 |--④-|
口口口口 |⑤-⑥-|
62
③③②口 |--①-|
①⑤口④ |②-③-|
④口⑤① |--④-|
口②③③ |--⑤-|
63
④口口③ |--①-|
⑤口口② |②-③-|
⑥口口① |--④-|
口口口口 |⑤-⑥-|
64
口⑥⑥⑥ |--①-|
口口口口 |②-③-|
口⑤④口 |--④-|
口①②③ |⑤-⑥-|
65
口口口口 |----|
口口口口 |--①-|
②②②口 |----|
①①①口 |--②-|
66
口②口④ |----|
①③④口 |--①-|
口④③① |--②-|
④口②口 |③-④-|


不確定度: 0

最終更新:2013年05月27日 20:37