PASSPORT
MEG

EXTREME

Level: 7
BPM: 137
Notes: 696

1
口口口口 |----|
口口口口 |----|
口口口口 |----|
口口口口 |----|
2
口口口口 |----|
口口口口 |----|
口口口口 |----|
口口口口 |----|
3
⑥⑦③④ |①-②-|
⑤口②① |③-④-|
④③⑦⑥ |--⑤-|
①②口⑤ |⑥-⑦-|
4
口⑥口③ |--①-|
④⑤①② |②-③-|
②①⑤④ |--④-|
③口⑥口 |⑤-⑥-|
5
⑤口③① |--①-|
⑥④口② |②-③-|
②口④⑥ |--④-|
①③口⑤ |⑤-⑥-|
6
口口③③ |--①-|
口口①② |②-③-|
②①口口
③③口口

④④口口
口口口⑤
⑤口口口 |--④-|
口口④④ |--⑤-|
7
④③口⑦ |①-②-|
⑥②①⑤ |③-④-|
⑤①②⑥ |--⑤-|
⑦口③④ |⑥-⑦-|
8
口③⑥④ |--①-|
口①②⑤ |②-③-|
⑤②①口 |--④-|
④⑥③口 |⑤-⑥-|
9
①②口⑤ |--①-|
③口④⑥ |②-③-|
⑥④口③ |--④-|
⑤口②① |⑤-⑥-|
10
③口口口 |--①-|
③①②口 |②-③-|
口②①③
口口口③

口口口④
口口⑤④
④口口口 |--④-|
④⑤口口 |--⑤-|
11
口①口② |--①-|
口口口③ |②-③-|
③口①口
②口口口

④⑤口口
口⑥口口
口口⑤④ |--④-|
口口⑥口 |⑤-⑥-|
12
口⑤口② |--①-|
⑥④③① |②-③-|
①③④⑥ |--④-|
②口⑤口 |⑤-⑥-|
13
⑤口③① |--①-|
⑥④口② |②-③-|
②口④⑥ |--④-|
①③口⑤ |⑤-⑥-|
14
口口③③ |--①-|
口口①② |②-③-|
②①口口
③③口口

④④口口
口口口⑤
⑤口口口 |--④-|
口口④④ |--⑤-|
15
④③口⑦ |①-②-|
⑥②①⑤ |③-④-|
⑤①②⑥ |--⑤-|
⑦口③④ |⑥-⑦-|
16
口③⑥④ |--①-|
口①②⑤ |②-③-|
⑤②①口 |--④-|
④⑥③口 |⑤-⑥-|
17
①②口⑤ |--①-|
③口④⑥ |②-③-|
⑥④口③ |--④-|
⑤口②① |⑤-⑥-|
18
③口②口 |--①-|
口①口口 |②-③-|
口口①口
口②口③

口⑥⑥口
口⑤④口
口④⑤口 |--④-|
口⑥⑥口 |⑤-⑥-|
19
⑥⑧⑤⑦ |①-②-|
口④⑦⑤ |③-④-|
②③口口 |⑤-⑥-|
①口口口 |⑦-⑧-|
20
⑦⑤⑧⑥ |①-②-|
⑤⑦④口 |③-④-|
口口③② |⑤-⑥-|
口口口① |⑦-⑧-|
21
⑥⑧⑤⑦ |①-②-|
口④⑦⑤ |③-④-|
②③口口 |⑤-⑥-|
①口口口 |⑦-⑧-|
22
⑦⑤⑧⑥ |①-②-|
⑤⑦④口 |③-④-|
口口③② |⑤-⑥-|
口口口① |⑦-⑧-|
23
⑥⑧⑤⑦ |①-②-|
口④⑦⑤ |③-④-|
②③口口 |⑤-⑥-|
①口口口 |⑦-⑧-|
24
⑦⑤⑧⑥ |①-②-|
⑤⑦④口 |③-④-|
口口③② |⑤-⑥-|
口口口① |⑦-⑧-|
25
⑥⑧⑤⑦ |①-②-|
口④⑦⑤ |③-④-|
②③口口 |⑤-⑥-|
①口口口 |⑦-⑧-|
26
⑦⑤⑧⑥ |①-②-|
⑤⑦④口 |③-④-|
口口③② |⑤-⑥-|
口口口① |⑦-⑧-|
27
口口口口 |①---|
口口①口 |----|
口①口①
口口①口

②③口口
③②口口
口口口口 |②-③-|
口口④④ |--④-|
28
口口口口 |--①-|
口口①① |--②-|
口口②②
口口口口

口口③③
口口④④
口口口口 |--③-|
口口④④ |--④-|
29
口口口口 |----|
③口③口 |----|
②②口口 |--①-|
①口口口 |②-③-|
30
①①②③ |--①-|
口口③② |--②-|
口口④口 |--③-|
口口口④ |--④-|
31
口口口口 |①---|
口④④口 |----|
口口③① |②-③-|
口②①口 |--④-|
32
④②②④ |--①-|
①④④③ |--②-|
口①③口 |--③-|
口口口口 |--④-|
33
口口口③ |----|
口口①② |----|
口口口③ |--①-|
口口①② |②-③-|
34
口①口口 |--①-|
口口②口 |--②-|
口①口口
口口②口

口⑤口口
③④口口
口⑤口口 |--③-|
③④口口 |④-⑤-|
35
①口①口 |----|
②口②口 |----|
③口③口 |--①-|
口口口口 |②-③-|
36
口口④口 |--①-|
口③②③ |--②-|
口口④口 |--③-|
口①②① |--④-|
37
口②口口 |----|
口①口口 |①-②-|
口②口口
口①口口

口口④口
③④③口
口口④口 |--③-|
口④口口 |--④-|
38
口②③口 |--①-|
口③②口 |--②-|
口①④口 |--③-|
口④①口 |--④-|
39
④口④口 |①---|
③口③口 |----|
②①②口 |--②-|
口口①口 |③-④-|
40
口口口口 |--①-|
④口②口 |--②-|
③口③口 |--③-|
④①②① |--④-|
41
口①口② |----|
口①②口 |①-②-|
①口②②
口口②口

口口口口
③④口口
④③口口 |----|
口口口口 |③-④-|
42
①口口口 |----|
④②口口 |----|
③口口口 |①-②-|
口口口口 |③-④-|
43
④⑤③② |①---|
口口①口 |②-③-|
④⑤③② |--④-|
口口口口 |--⑤-|
44
口口口① |----|
口口②④ |----|
口口口③ |①-②-|
口口口口 |③-④-|
45
②③⑤④ |①---|
口①口口 |②-③-|
②③⑤④ |--④-|
口口口口 |--⑤-|
46
口口口口 |----|
口口口口 |----|
口②口口 |①-②-|
①④③口 |③-④-|
47
③口③口 |①---|
②①②口 |②-③-|
口口口口
口口口口

口④口口
口④⑤口
④⑤⑤口 |--④-|
口⑤⑤口 |--⑤-|
48
口口口① |--①-|
②口口口 |--②-|
②口口①
口口口①

口口口口
口⑤③④
口⑤③④ |--③-|
口口口口 |④-⑤-|
49
口口口口 |--①-|
①口②③ |②-③-|
①口口口
口口②③

口④④口
⑤口口口
⑤口⑥⑥ |--④-|
口⑥⑥口 |⑤-⑥-|
50
①②口⑦ |----|
口口口口 |①②--|
口口⑥⑤ |③④⑤⑥|
口口④③ |⑦---|
51
⑥⑦③④ |①-②-|
⑤口②① |③-④-|
④③⑦⑥ |--⑤-|
①②口⑤ |⑥-⑦-|
52
口⑥口③ |--①-|
④⑤①② |②-③-|
②①⑤④ |--④-|
③口⑥口 |⑤-⑥-|
53
⑤口③① |--①-|
⑥④口② |②-③-|
②口④⑥ |--④-|
①③口⑤ |⑤-⑥-|
54
口口③③ |--①-|
口口①② |②-③-|
②①口口
③③口口

④④口口
口口口⑤
⑤口口口 |--④-|
口口④④ |--⑤-|
55
④③口⑦ |①-②-|
⑥②①⑤ |③-④-|
⑤①②⑥ |--⑤-|
⑦口③④ |⑥-⑦-|
56
口③⑥④ |--①-|
口①②⑤ |②-③-|
⑤②①口 |--④-|
④⑥③口 |⑤-⑥-|
57
①②口⑤ |--①-|
③口④⑥ |②-③-|
⑥④口③ |--④-|
⑤口②① |⑤-⑥-|
58
③口口口 |--①-|
③①②口 |②-③-|
口②①③
口口口③

口口口④
口口⑤④
④口口口 |--④-|
④⑤口口 |--⑤-|
59
口①口② |--①-|
口口口③ |②-③-|
③口①口
②口口口

④⑤口口
口⑥口口
口口⑤④ |--④-|
口口⑥口 |⑤-⑥-|
60
口⑤口② |--①-|
⑥④③① |②-③-|
①③④⑥ |--④-|
②口⑤口 |⑤-⑥-|
61
⑤口③① |--①-|
⑥④口② |②-③-|
②口④⑥ |--④-|
①③口⑤ |⑤-⑥-|
62
口口③③ |--①-|
口口①② |②-③-|
②①口口
③③口口

④④口口
口口口⑤
⑤口口口 |--④-|
口口④④ |--⑤-|
63
④③口⑦ |①-②-|
⑥②①⑤ |③-④-|
⑤①②⑥ |--⑤-|
⑦口③④ |⑥-⑦-|
64
口③⑥④ |--①-|
口①②⑤ |②-③-|
⑤②①口 |--④-|
④⑥③口 |⑤-⑥-|
65
①②口⑤ |--①-|
③口④⑥ |②-③-|
⑥④口③ |--④-|
⑤口②① |⑤-⑥-|
66
③口②口 |--①-|
口①口口 |②-③-|
口口①口
口②口③

口口⑥⑥
⑤⑤④④
④④⑤⑤ |--④-|
⑥⑥口口 |⑤-⑥-|


不確定度: 0

最終更新:2013年05月27日 20:37