Parachute
トクマルシューゴ

EXTREME

Level: 8
BPM: 120
Notes: 518

BPM: 123
1
口口口口 |----|
口口口口 |----|
口口口口 |----|
口口口口 |----|
2
口口口口 |①-②③|
口口⑤口 |-④⑤-|
口口③④
口①口②

BPM: 121

口⑦⑧⑥
⑨口口口
⑪⑩口口 |⑥⑦-⑧|
口⑫口口 |⑨⑩⑪⑫|

BPM: 119
3
口⑦⑧⑥ |①-②③|
⑨口⑤口 |-④⑤-|
⑪⑩③④ |⑥⑦-⑧|
①⑫口② |⑨⑩⑪⑫|

BPM: 119.74
4
口⑦⑧⑥ |①-②③|
⑨口⑤口 |-④⑤-|
⑪⑩③④ |⑥⑦-⑧|
①⑫口② |⑨⑩⑪⑫|
5
口⑦⑧⑥ |①-②③|
⑨口⑤口 |-④⑤-|
⑪⑩③④ |⑥⑦-⑧|
①⑫口② |⑨⑩⑪⑫|
6
口⑤口④ |①-②-|
⑥⑦⑥③ |③-④-|
口⑤口② |⑤--⑥|
口口口① |--⑦-|
7
口口口口 |①-②③|
口口⑤口 |-④⑤-|
口口③④
口①口②

口⑦⑧⑥
⑨口口口
⑪⑩口口 |⑥⑦-⑧|
口⑫口口 |⑨⑩⑪⑫|
8
⑦⑥⑦④ |①-②-|
⑥⑤⑥③ |③-④-|
⑦⑥口② |⑤--⑥|
口口口① |--⑦-|
9
口口口口 |①-②③|
口口⑤口 |-④⑤-|
口口③④
口②口①

口⑦⑧⑥
⑨口口口
⑪⑩口口 |⑥⑦-⑧|
口⑫口口 |⑨⑩⑪⑫|
10
口⑥口④ |①-②-|
⑦⑦⑤③ |③-④-|
口⑥口② |⑤--⑥|
口口口① |--⑦-|
11
口口口口 |①-②③|
口口⑤口 |-④⑤-|
②口③④
口①口②

口⑦⑧⑥
⑨口口口
⑪⑩口口 |⑥⑦-⑧|
口⑫口口 |⑨⑩⑪⑫|
12
口⑥⑤④ |①-②-|
口⑦⑤③ |③-④-|
口口口② |⑤--⑥|
口口口① |--⑦-|
13
②口口口 |①-②③|
②口⑤口 |-④⑤-|
口口③④
口①口②

口⑦⑧⑥
⑨口口口
⑪⑩口口 |⑥⑦-⑧|
口⑫口口 |⑨⑩⑪⑫|
14
②③④口 |①-②-|
⑥⑥⑥⑥ |--③-|
口口①① |--④-|
⑤口口⑤ |⑤-⑥-|
15
①②④⑤ |--①-|
口口③口 |--②③|
⑤④②⑤ |--④-|
口口口口 |--⑤-|
16
②③④口 |①-②-|
口①口⑤ |--③-|
口口⑤口 |--④-|
口①口⑤ |--⑤-|
17
①②④⑥ |--①-|
口口口口 |--②-|
③口口③ |③-④-|
口⑤⑤口 |⑤-⑥-|
18
口口口口 |①---|
①①①① |----|
口口口口
口口口口

口口口口
口③③口
口④④口 |②---|
②口口② |③-④-|
19
②③④口 |--①-|
①口口① |--②-|
口口口口 |--③-|
①口口① |--④-|
20
③口口④ |①---|
①①①① |----|
④口口③ |②---|
口②②口 |③-④-|
21
②③口口 |--①-|
①口口① |--②-|
口⑤口口 |--③-|
①口④① |④-⑤-|
22
口口口口 |--①-|
②②④口 |--②-|
口口①① |--③-|
口③口口 |--④-|
23
①口口① |①---|
口口口口 |----|
①口口①
口口口口

口口口口
口②口口
③口②口 |②---|
④口口③ |③-④-|
24
口口口口 |①---|
②口②口 |②---|
口①口①
口口①口

口③口口
口⑤口③
口口口口 |③---|
口口④口 |④-⑤-|
25
①口口① |①---|
③口口③ |②---|
①②②① |③---|
④③③⑤ |④-⑤-|
26
口⑥口口 |--①-|
口②口口 |②-③-|
①⑤③口 |④---|
④口④口 |⑤-⑥-|
27
③⑤⑤③ |①---|
②口口① |②---|
④口口④ |③-④-|
②口口① |⑤---|
28
口口口口 |--①-|
⑤①①⑥ |②-③-|
③②②③ |④---|
④①①④ |⑤-⑥-|
29
口①口口 |①---|
口②①口 |②---|
口口②口
口口口口

口④口口
④口④口
口④口口 |③---|
③口口③ |④---|
30
①口①口 |①---|
口②口② |②---|
①口①口
口②口②

口④口口
④口③口
口③④③ |③---|
口口③口 |④---|
31
口口口口 |--①-|
口口口① |----|
口口口口 |----|
口①②① |--②-|
32
⑧口③③ |①-②-|
⑥口⑦⑤ |③-④-|
④口⑤① |⑤-⑥-|
②口⑧口 |⑦-⑧-|
33
⑧口①① |①-②-|
⑥口⑤⑤ |③-④-|
④口③③ |⑤-⑥-|
②口⑧⑦ |⑦-⑧-|
34
口口口口 |--①-|
口口③口 |②-③-|
③口②①
①口口口

⑦口口口
⑤口口⑦
口口口⑥ |④-⑤-|
口口④④ |⑥-⑦-|
35
⑧⑤⑤⑦ |①-②-|
⑥③③口 |③-④-|
④①①口 |⑤-⑥-|
②口口口 |⑦-⑧-|
36
口口口口 |①-②-|
口口②② |③-④-|
④口④③
②口口①

⑧口⑤口
⑥口⑧口
口口口口 |⑤-⑥-|
口口⑦口 |⑦-⑧-|
37
口⑦口口 |①-②-|
⑦⑥⑦① |③-④-|
④⑦口③ |⑤-⑥-|
②口⑤③ |⑦---|
38
①口①口 |①---|
口②口② |②---|
①口①口
口②口②

口④口口
④口③口
口③④③ |③---|
口口③口 |④---|
39
口②口口 |--①-|
②口②① |----|
口②口口 |----|
口①口① |②---|
40
①口①口 |①---|
口②口② |②---|
①口①口
口②口②

口④口口
④口③口
口③④③ |③---|
口口③口 |④---|
41
口②口口 |--①-|
②①②① |----|
口②口口 |----|
口①口口 |②---|
42
①口①口 |①---|
口②口② |②---|
①口①口
口②口②

口④口口
④口③口
口③④③ |③---|
口口③口 |④---|
43
口口口口 |--①-|
口①口① |----|
口口口口 |----|
口①口① |----|
44
口口口口 |①---|
口①口口 |----|
口口①口
口口口口

口口口口
口③⑤口
口②④口 |②-③-|
口口口口 |④-⑤-|
45
①④④② |--①-|
口口口口 |--②-|
③⑤⑤③ |--③-|
②口口① |④-⑤-|
46
⑧口⑩⑥ |①②③④|
⑦⑪⑫② |⑤⑥⑦⑧|
④口⑨⑤ |⑨⑩⑪-|
③⑬口① |⑫-⑬-|
47
⑧口⑩⑥ |①②③④|
⑦⑪⑫② |⑤⑥⑦⑧|
④口⑨⑤ |⑨⑩⑪-|
③⑬口① |⑫-⑬-|
48
⑧口⑩⑥ |①②③④|
⑦⑪⑫② |⑤⑥⑦⑧|
④口⑨⑤ |⑨⑩⑪-|
③⑬口① |⑫-⑬-|
49
⑧口⑩⑥ |①②③④|
⑦⑪⑫② |⑤⑥⑦⑧|
④口⑨⑤ |⑨⑩⑪-|
③⑬口① |⑫-⑬-|
50
⑧③④⑦ |①②③-|
口口⑨② |④-⑤-|
⑩⑤口⑥ |⑥⑦⑧-|
口口口① |⑨-⑩-|
51
④口口⑤ |①②③-|
口口口③ |④-⑤-|
口⑥⑥口 |⑥---|
口①口② |----|


不確定度: 0

最終更新:2013年05月28日 15:10