On and On
中塚武

BASIC

Level: 3
BPM: 130
Notes: 234

1
口口口口 |----|
口口口口 |----|
口口口口 |----|
口口口口 |----|
2
口口口口 |①---|
②口口④ |②---|
①口口③ |③---|
口口口口 |④---|
3
口口口口 |①---|
②口口④ |②---|
①口口③ |③---|
口口口口 |④---|
4
口口口口 |①---|
②口口④ |②---|
①口口③ |③---|
口口口口 |④---|
5
口口口口 |①---|
②口口④ |②---|
①口口③ |③---|
口口口口 |④---|
6
口口口口 |①---|
口②④口 |②---|
①口口③ |③---|
口口口口 |④---|
7
口口口口 |①---|
口②④口 |②---|
①口口③ |③---|
口口口口 |④---|
8
口口口口 |①---|
口②④口 |②---|
①口口③ |③---|
口口口口 |④---|
9
口口口口 |----|
口口口口 |----|
口口口口 |----|
口口口口 |----|
10
⑥口口③ |--①-|
口口口口 |②----③|
⑤④①② |--④-|
口口口口 |⑤----⑥|
11
⑥口口③ |--①-|
口口口口 |②----③|
⑤④①② |--④-|
口口口口 |⑤----⑥|
12
⑥口口③ |--①-|
口口口口 |②----③|
⑤④①② |--④-|
口口口口 |⑤----⑥|
13
⑥口口③ |--①-|
口口口口 |②----③|
⑤④①② |--④-|
口口口口 |⑤----⑥|
14
⑥口口③ |--①-|
口口口口 |②----③|
⑤④①② |--④-|
口口口口 |⑤----⑥|
15
⑥口口③ |--①-|
口口口口 |②----③|
⑤④①② |--④-|
口口口口 |⑤----⑥|
16
⑥口口③ |--①-|
口口口口 |②----③|
⑤④①② |--④-|
口口口口 |⑤----⑥|
17
口口口③ |--①-|
口④口口 |②----③|
口口①② |-----④|
口口口口 |----|
18
口口口口 |①---|
口②②口 |----|
③口口口 |②---|
口①①口 |-----③|
19
口口口口 |----|
②口口③ |①---|
口口口① |②---|
口口口口 |③---|
20
口口口口 |①---|
口②口口 |----|
口①②口 |②---|
口口①口 |----|
21
口①口口 |①---|
口口①口 |----|
口口口口 |----|
口口口口 |----|
22
口口口口 |①---|
口②②口 |----|
③口口口 |②---|
口①①口 |-----③|
23
口口口口 |----|
②口口③ |①---|
口口口① |②---|
口口口口 |③---|
24
口口口口 |①---|
口②口口 |----|
口①②口 |②---|
口口①口 |----|
25
口①口口 |①---|
口口①口 |----|
口口口口 |----|
口口口口 |----|
26
⑥口口③ |--①-|
口口口口 |②----③|
⑤④①② |--④-|
口口口口 |⑤----⑥|
27
⑥口口③ |--①-|
口口口口 |②----③|
⑤④①② |--④-|
口口口口 |⑤----⑥|
28
⑥口口③ |--①-|
口口口口 |②----③|
⑤④①② |--④-|
口口口口 |⑤----⑥|
29
口口口③ |--①-|
口口口口 |②----③|
口口①② |----|
口口口口 |----|
30
口口口口 |①---|
口②②口 |----|
③口口口 |②---|
口①①口 |-----③|
31
口口口口 |----|
②口口③ |①---|
口口口① |②---|
口口口口 |③---|
32
口口口口 |①---|
口口②口 |----|
口②①口 |②---|
口①口口 |----|
33
口口①口 |①---|
口①口口 |----|
口口口口 |----|
口口口口 |----|
34
口口口口 |①---|
②口口② |----|
③口口口 |②---|
口①①口 |-----③|
35
口口口口 |----|
口②③口 |①---|
口口口① |②---|
口口口口 |③---|
36
口口口口 |①---|
口口②口 |----|
口②①口 |②---|
口①口口 |----|
37
口口①口 |①---|
口①口口 |----|
口口口口 |----|
口口口口 |----|
38
①①口口 |①---|
②口口口 |②---|
③口口口 |③---|
④口口口 |④---|
39
口口口口 |①---|
口口口口 |----|
口②②口 |②---|
口口①口 |----|
40
口口①① |①---|
口口口② |②---|
口口口③ |③---|
口口口④ |④---|
41
口口口口 |①---|
口②②口 |----|
口口口口 |②---|
口①口口 |----|
42
①①口口 |①---|
②口口口 |②---|
③口口口 |③---|
④口口口 |④---|
43
口口口口 |①---|
口口口口 |----|
口②②口 |②---|
口口①口 |----|
44
口口①① |①---|
口口口② |②---|
口口口③ |③---|
口口口④ |④---|
45
口口口口 |①---|
口②②口 |----|
口口口口 |②---|
口①口口 |----|
46
⑥口口③ |--①-|
口口口口 |②----③|
⑤④①② |--④-|
口口口口 |⑤----⑥|
47
⑥口口③ |--①-|
口口口口 |②----③|
⑤④①② |--④-|
口口口口 |⑤----⑥|
48
⑥口口③ |--①-|
口口口口 |②----③|
⑤④①② |--④-|
口口口口 |⑤----⑥|
49
⑥口口③ |--①-|
口口口口 |②----③|
⑤④①② |--④-|
口口口口 |⑤----⑥|
50
⑥口口③ |--①-|
口口口口 |②----③|
⑤④①② |--④-|
口口口口 |⑤----⑥|
51
⑥口口③ |--①-|
口口口口 |②----③|
⑤④①② |--④-|
口口口口 |⑤----⑥|
52
⑥口口③ |--①-|
口口口口 |②----③|
⑤④①② |--④-|
口口口口 |⑤----⑥|
53
口口口口 |--①-|
口③口④ |②---|
口口①② |③---|
口口口口 |④---|
54
口③③口 |--①-|
口②②口 |②----③|
口口口口 |----|
口口①口 |----|


不確定度: 0

最終更新:2013年05月27日 20:35