On and On
中塚武

ADVANCED

Level: 7
BPM: 130
Notes: 376

1
口口口口 |----|
口口口口 |----|
口口口口 |----|
口口口口 |----|
2
口口口口 |①---|
②口口④ |②---|
口①③口 |③---|
口口口口 |④---|
3
口口口口 |①---|
②口口④ |②---|
口①③口 |③---|
口口口口 |④---|
4
口口口口 |①---|
②口口④ |②---|
口①③口 |③---|
口口口口 |④---|
5
口口口口 |①---|
②口口④ |②---|
口①③口 |③---|
口口口口 |④---|
6
口口口口 |①---|
②口口④ |②---|
口①③口 |③---|
②口口④ |④---|
7
口口口口 |①---|
②口口④ |②---|
口①③口 |③---|
②口口④ |④---|
8
口口口口 |①---|
②口口④ |②---|
口①③口 |③---|
②口口④ |④---|
9
口口口口 |----|
口口口口 |----|
口口口口 |----|
口口口口 |----|
10
④口口⑧ |--①-|
口口口口 |②-③--④|
⑦①⑤③ |--⑤-|
⑥口口② |⑥-⑦--⑧|
11
④口口⑧ |--①-|
口口口口 |②-③--④|
⑦①⑤③ |--⑤-|
⑥口口② |⑥-⑦--⑧|
12
④口口⑧ |--①-|
口口口口 |②-③--④|
⑦①⑤③ |--⑤-|
⑥口口② |⑥-⑦--⑧|
13
④口口⑧ |--①-|
口口口口 |②-③--④|
⑦①⑤③ |--⑤-|
⑥口口② |⑥-⑦--⑧|
14
④口口⑧ |--①-|
口⑧④口 |②-③--④|
⑦①⑤③ |--⑤-|
⑥口口② |⑥-⑦--⑧|
15
④口口⑧ |--①-|
口⑧④口 |②-③--④|
⑦①⑤③ |--⑤-|
⑥口口② |⑥-⑦--⑧|
16
④口口⑧ |--①-|
口⑧④口 |②-③--④|
⑦①⑤③ |--⑤-|
⑥口口② |⑥-⑦--⑧|
17
④口口口 |--①-|
口口④口 |②-③--④|
口①口③
口口口②

口口口⑤
口口口口
口⑥⑥口 |--⑤--⑥|
口口口口 |----|
18
口④口口 |--①-|
口口口口 |②-③--④|
口口③口
①口②口

口口口口
⑦口口口
口口口⑤ |---⑤-⑥|
⑥口口口 |-----⑦|
19
④口⑤口 |--①-|
口⑥口① |②-③-|
口②③口 |④-⑤--⑥|
口口口口 |----|
20
④口口口 |--①-|
口口③口 |②-③--④|
①口②口
口口口口

口口口⑤
口口口口
⑥口口⑥ |---⑤-⑥|
口⑦⑦口 |--⑦-|
21
口口口口 |①---|
口口口口 |----|
口①①口 |----|
口口口口 |----|
22
口④口口 |--①-|
口口口口 |②-③--④|
口口③口
①口②口

口口口口
⑦口口口
口口口⑤ |---⑤-⑥|
⑥口口口 |-----⑦|
23
④口⑤口 |--①-|
口⑥口① |②-③-|
口②③口 |④-⑤--⑥|
口口口口 |----|
24
④口口口 |--①-|
口口③口 |②-③--④|
①口②口
口口口口

口口口⑤
口⑧⑧口
⑥口口⑥ |---⑤-⑥|
口⑦⑦口 |---⑦-⑧|
25
口口口口 |----|
口口口口 |----|
口口口口 |----|
口口口口 |----|
26
④口口⑧ |--①-|
口⑧④口 |②-③--④|
⑦①⑤③ |--⑤-|
⑥口口② |⑥-⑦--⑧|
27
④口口⑧ |--①-|
口⑧④口 |②-③--④|
⑦①⑤③ |--⑤-|
⑥口口② |⑥-⑦--⑧|
28
④口口⑧ |--①-|
口⑧④口 |②-③--④|
⑦①⑤③ |--⑤-|
⑥口口② |⑥-⑦--⑧|
29
口口口口 |--①-|
口口口口 |②-③--④|
④①口③
口口口②

口口口口
口⑥⑥口
口⑤⑤口 |----|
口口口口 |⑤-⑥-|
30
口④口口 |--①-|
口口口口 |②-③--④|
口口③口
①口②口

口口口口
⑦口口口
口口口⑤ |---⑤-⑥|
⑥口口口 |-----⑦|
31
④口⑤口 |--①-|
口⑥口① |②-③-|
口②③口 |④-⑤--⑥|
口口口口 |----|
32
④口口口 |--①-|
口口③口 |②-③--④|
①口②口
口口口口

口口口⑤
口口口口
⑥口口⑥ |---⑤-⑥|
口⑦⑦口 |--⑦-|
33
口口口口 |①---|
口口口口 |----|
口①①口 |----|
口口口口 |----|
34
口④口口 |--①-|
①口口口 |②-③--④|
口口②口
口口③口

口口口口
⑦口口口
口口口⑤ |---⑤-⑥|
⑥口口口 |-----⑦|
35
④口⑤口 |--①-|
口⑥口① |②-③-|
口②③口 |④-⑤--⑥|
口口口口 |----|
36
④口口口 |--①-|
口口③口 |②-③--④|
①口②口
口口口口

口口口⑤
口⑧⑧口
⑥口口⑥ |---⑤-⑥|
口⑦⑦口 |---⑦-⑧|
37
口口口口 |----|
口口口口 |----|
口口口口 |----|
口口口口 |----|
38
①⑧口① |①---|
口②③口 |②-③--④|
④口⑥⑦ |--⑤-|
口⑤口口 |⑥-⑦--⑧|
39
口口口口 |----|
口③②口 |--①-|
口口口口 |②-③--④|
①口口④ |----|
40
①⑧口① |①---|
口②③口 |②-③--④|
④口⑥⑦ |--⑤-|
口⑤口口 |⑥-⑦--⑧|
41
口口口口 |----|
口③④口 |①-②-|
口口口口 |③-④--⑤|
①⑤⑤② |----|
42
①⑧口① |①---|
口②③口 |②-③--④|
④口⑥⑦ |--⑤-|
口⑤口口 |⑥-⑦--⑧|
43
口口口口 |----|
口③②口 |--①-|
口口口口 |②-③--④|
①口口④ |----|
44
①⑧口① |①---|
口②③口 |②-③--④|
④口⑥⑦ |--⑤-|
口⑤口口 |⑥-⑦--⑧|
45
口口口口 |----|
口③④口 |①-②-|
口口口口 |③-④--⑤|
①⑤⑤② |----|
46
④口口⑧ |--①-|
口⑧④口 |②-③--④|
⑦①⑤③ |--⑤-|
⑥口口② |⑥-⑦--⑧|
47
④口口⑧ |--①-|
口⑧④口 |②-③--④|
⑦①⑤③ |--⑤-|
⑥口口② |⑥-⑦--⑧|
48
④口口⑧ |--①-|
口⑧④口 |②-③--④|
⑦①⑤③ |--⑤-|
⑥口口② |⑥-⑦--⑧|
49
④口口⑧ |--①-|
口⑧④口 |②-③--④|
⑦①⑤③ |--⑤-|
⑥口口② |⑥-⑦--⑧|
50
④口口⑧ |--①-|
口⑧④口 |②-③--④|
⑦①⑤③ |--⑤-|
⑥口口② |⑥-⑦--⑧|
51
④口口⑧ |--①-|
口⑧④口 |②-③--④|
⑦①⑤③ |--⑤-|
⑥口口② |⑥-⑦--⑧|
52
④口口⑧ |--①-|
口⑧④口 |②-③--④|
⑦①⑤③ |--⑤-|
⑥口口② |⑥-⑦--⑧|
53
口口口口 |--①-|
③口口② |----|
口口口① |②---|
口口口① |③---|
54
⑤口口⑤ |①-②-|
口③④口 |③-④--⑤|
①口口① |----|
口②②口 |----|


不確定度: 0

最終更新:2013年05月27日 20:35