On and On
中塚武

EXTREME

Level: 8
BPM: 130
Notes: 535

1
口口口口 |----|
口口口口 |----|
口口口口 |----|
口口口口 |----|
2
②口口④ |①---|
口口口口 |②---|
口①③口 |③---|
②口口④ |④---|
3
②口口④ |①---|
口口口口 |②---|
口①③口 |③---|
②口口④ |④---|
4
②口口④ |①---|
口口口口 |②---|
口①③口 |③---|
②口口④ |④---|
5
②口口④ |①---|
口口口口 |②---|
口①③口 |③---|
②口口④ |④---|
6
②口口⑥ |①---|
口③口⑤ |②-③-|
口①④⑦ |④-⑤-|
②口口⑥ |⑥-⑦-|
7
②口口⑥ |①---|
③口⑦⑤ |②-③-|
口①④口 |④-⑤-|
②口口⑥ |⑥-⑦-|
8
②口口口 |①---|
③口口口 |②-③-|
口①口口
②口口口

口口口⑥
口口口⑤
口⑦④口 |④-⑤-|
口口口⑥ |⑥-⑦-|
9
口口口口 |----|
口口口口 |----|
口口口口 |----|
口口口口 |----|
10
⑧⑧④④ |--①-|
③口口⑦ |②-③--④|
⑥口口② |--⑤-|
①口口⑤ |⑥-⑦--⑧|
11
⑧⑧④④ |--①-|
③口口⑦ |②-③--④|
⑥口口② |--⑤-|
①口口⑤ |⑥-⑦--⑧|
12
⑧⑧④④ |--①-|
③③⑦⑦ |②-③--④|
⑥⑥②② |--⑤-|
①口口⑤ |⑥-⑦--⑧|
13
口口④④ |--①-|
③③口口 |②-③--④|
口口②②
①口口口

⑧口口口
⑧口⑦口
⑥⑥口口 |--⑤-|
口口口⑤ |⑥-⑦--⑧|
14
⑧⑧④④ |--①-|
口③⑦口 |②-③--④|
⑥③⑦② |--⑤-|
①口口⑤ |⑥-⑦--⑧|
15
⑧⑧④④ |--①-|
口③⑦口 |②-③--④|
⑥③⑦② |--⑤-|
①口口⑤ |⑥-⑦--⑧|
16
口口④④ |--①-|
③③口② |②-③--④|
口口口②
①口口口

⑧⑧口口
口口⑦⑦
⑥⑥口口 |--⑤-|
口口口⑤ |⑥-⑦--⑧|
17
口口④④ |--①-|
③③口口 |②-③--④|
口口②②
①口口口

⑤口口口
口口口口
口口口口 |--⑤--⑥|
⑥口口⑥ |----|
18
④④口口 |--①-|
口口③口 |②-③--④|
①口口口
口口②口

口口⑦口
⑥口口⑤
⑥口口口 |---⑤-⑥|
口口口口 |-----⑦|
19
口⑥口⑧ |--①②-③|
⑨⑤④⑦ |④-⑤⑥-⑦|
口②③口 |⑧-⑨--⑩|
⑨①口⑩ |----|
20
口口口口 |--①-|
口口口③ |②-③--④|
①④②口
口④口口

⑤口⑥口
口口口口
⑦口口⑦ |---⑤-⑥|
口口口口 |--⑦-|
21
口口口口 |①---|
①口③① |②-③-|
口②口口
口口口口

口口口口
口④口⑦
口口⑥⑤ |④-⑤-|
口④口口 |⑥-⑦-|
22
⑤⑤口口 |①-②-|
②口④口 |③-④--⑤|
口口口口
①口③口

口口⑧口
⑦口口⑥
⑦口口口 |---⑥-⑦|
口口口口 |-----⑧|
23
口⑥口⑧ |--①②-③|
⑨⑤④⑦ |④-⑤⑥-⑦|
口②③口 |⑧-⑨--⑩|
⑨①口⑩ |----|
24
⑤⑥⑤⑥ |--①-|
口口口③ |②-③--④|
①④②⑧ |--⑤--⑥|
⑦④口口 |---⑦-⑧|
25
口口口⑥ |----|
⑤口③口 |①-②-|
口②④口 |③-④-|
口①③口 |⑤-⑥-|
26
⑧⑧④④ |--①-|
③③⑦⑦ |②-③--④|
⑥⑥②② |--⑤-|
①口口⑤ |⑥-⑦--⑧|
27
⑧⑧④④ |--①-|
③③⑦⑦ |②-③--④|
⑥⑥②② |--⑤-|
①口口⑤ |⑥-⑦--⑧|
28
⑧⑧④④ |--①-|
③③⑦⑦ |②-③--④|
⑥⑥②② |--⑤-|
①口口⑤ |⑥-⑦--⑧|
29
口口口② |--①-|
④③④口 |②-③--④|
口口口②
①③口口

口⑦口⑧
口口口口
口口⑥口 |----|
⑤口口口 |⑤-⑥⑦-⑧|
30
④④口口 |--①-|
口口③口 |②-③--④|
①口口口
口口②口

口口⑦口
⑥口口⑤
⑥口口口 |---⑤-⑥|
口口口口 |-----⑦|
31
口⑥口⑧ |--①②-③|
⑨⑤④⑦ |④-⑤⑥-⑦|
口②③口 |⑧-⑨--⑩|
⑨①口⑩ |----|
32
口口口口 |--①-|
口口口③ |②-③--④|
①口②口
④④口口

⑤⑤⑥口
口口⑥口
⑦口口⑦ |---⑤-⑥|
口口口口 |--⑦-|
33
口口口口 |①---|
①口③① |②-③-|
口②口口
口口口口

口口口口
口④口⑦
口口⑥⑤ |④-⑤-|
口④口口 |⑥-⑦-|
34
④④口口 |--①-|
①口③口 |②-③--④|
口口口口
口口②口

口口⑦口
⑥口口⑤
口口口口 |---⑤-⑥|
⑥口口口 |-----⑦|
35
口⑥口口 |--①②-③|
口⑤④⑦ |④-⑤⑥-⑦|
口②③口
口①口口

⑨口⑨⑧
口口口口
口⑩口⑩ |⑧-⑨--⑩|
口口口口 |----|
36
⑤⑥⑤⑥ |--①-|
口口口③ |②-③--④|
①④②⑧ |--⑤--⑥|
⑦④口口 |---⑦-⑧|
37
口口口口 |----|
⑤口③口 |①-②-|
口②④⑥ |③-④-|
口①③口 |⑤-⑥-|
38
①口口① |①---|
口②口口 |②-③--④|
口口③口
④④口口

⑧口⑧口
口⑦口⑥
⑤⑥口⑦ |--⑤-|
口口⑤口 |⑥-⑦--⑧|
39
口口口口 |----|
口口③口 |--①-|
口口②口 |②-③--④|
口①④口 |----|
40
①口口① |①---|
口②口口 |②-③--④|
口口③口
④④口口

⑧口⑧口
口⑦口⑥
⑤⑥口⑦ |--⑤-|
口口⑤口 |⑥-⑦--⑧|
41
口④口口 |----|
③口⑤③ |①-②-|
口口②口 |③-④--⑤|
口①口口 |----|
42
①口口① |①---|
口②口口 |②-③--④|
口口③口
④④口口

⑧口⑧口
口⑦口⑥
⑤⑥口⑦ |--⑤-|
口口⑤口 |⑥-⑦--⑧|
43
口口口口 |----|
口口③口 |--①-|
口口②口 |②-③--④|
口①④口 |----|
44
①口口① |①---|
口②口口 |②-③--④|
口口③口
④④口口

⑧口⑧口
口⑦口⑥
⑤⑥口⑦ |--⑤-|
口口⑤口 |⑥-⑦--⑧|
45
口④口口 |----|
③口⑤③ |①-②-|
口口②口 |③-④--⑤|
口①口口 |----|
46
⑧口口④ |--①-|
①⑦③⑤ |②-③--④|
①②⑥⑤ |--⑤-|
⑧口口④ |⑥-⑦--⑧|
47
⑧口口④ |--①-|
①⑦③⑤ |②-③--④|
①②⑥⑤ |--⑤-|
⑧口口④ |⑥-⑦--⑧|
48
⑧口口④ |--①-|
①⑦③⑤ |②-③--④|
①②⑥⑤ |--⑤-|
⑧口口④ |⑥-⑦--⑧|
49
⑧口口④ |--①-|
①⑦③⑤ |②-③--④|
①②⑥⑤ |--⑤-|
⑧口口④ |⑥-⑦--⑧|
50
⑧口口④ |--①-|
①⑦③⑤ |②-③--④|
①②⑥⑤ |--⑤-|
⑧口口④ |⑥-⑦--⑧|
51
⑧口口④ |--①-|
①⑦③⑤ |②-③--④|
①②⑥⑤ |--⑤-|
⑧口口④ |⑥-⑦--⑧|
52
⑧口口④ |--①-|
①⑦③⑤ |②-③--④|
①②⑥⑤ |--⑤-|
⑧口口④ |⑥-⑦--⑧|
53
口②口② |--①-|
①⑤⑥口 |②---|
①③口③ |③---|
口⑦④口 |④-⑤⑥-⑦|
54
①⑤⑤① |①-②-|
口口口口 |③-④--⑤|
④③③④ |----|
②口口② |----|


不確定度: 0

最終更新:2013年05月27日 20:35