オムライス
オーロラ三人娘

BASIC

Level: 2
BPM: 177
Notes: 204

1
口口口口 |----|
口口口口 |----|
口口口口 |----|
口口口口 |----|
2
口口口口 |①---|
口口口口 |----|
口口口口 |----|
口①①口 |----|
3
口③③口 |①-②-|
口口口口 |--③-|
①口口② |----|
口口口口 |----|
4
口口口口 |①---|
口口口口 |----|
口口口口 |----|
口①①口 |----|
5
口③③口 |①-②-|
口口口口 |--③-|
①口口② |----|
口口口口 |----|
6
口口口口 |①---|
口口口① |----|
口口②口 |②---|
口口口口 |----|
7
口口口口 |①---|
口①口口 |----|
②口口口 |②---|
口口口口 |----|
8
口①①口 |①---|
口口口口 |----|
口口口口 |----|
口口口口 |----|
9
口口口口 |----|
口口口口 |----|
口口口口 |----|
口口口口 |----|
10
①②口口 |①---|
口口口口 |----|
口口口口 |②---|
口口口口 |----|
11
口口口口 |①---|
口口①② |----|
口口口口 |②---|
口口口口 |----|
12
口口口口 |①---|
口口口口 |----|
口口②① |②---|
口口口口 |----|
13
口口口口 |①---|
口口口口 |----|
口①口口 |----|
口口口口 |----|
14
口口口口 |----|
口口口口 |----|
口口口口 |----|
口口口口 |----|
15
口口②① |①---|
口口口口 |----|
口口口口 |②---|
口口口口 |----|
16
口口口口 |①---|
②①口口 |----|
口口口口 |②---|
口口口口 |----|
17
口口口口 |①---|
口口②口 |----|
口①口口 |②---|
口口口口 |----|
18
口口口口 |①---|
口口口口 |----|
口口口① |----|
口口口口 |----|
19
口口口口 |----|
口口口口 |----|
口口口口 |----|
口口口口 |----|
20
口口口口 |①---|
口口口口 |----|
口①口口 |②---|
口口②口 |----|
21
口②②口 |①---|
口口口口 |--②-|
口口口① |----|
口口口口 |----|
22
口口口口 |①---|
口口口口 |----|
口口①口 |②---|
口②口口 |----|
23
口②②口 |①---|
口口口口 |--②-|
①口口口 |----|
口口口口 |----|
24
口口口口 |①---|
口①口口 |----|
口②口口 |②---|
口口口口 |----|
25
口口口口 |①---|
口口①口 |----|
口口②口 |②---|
口口口口 |----|
26
①口口② |①---|
口口口口 |----|
口口口口 |②---|
口口口口 |----|
27
口口口口 |①---|
口口口口 |----|
口口口口 |②---|
①口口② |----|
28
口口口口 |①---|
口口口口 |----|
口①口口 |②---|
口口②口 |----|
29
口②②口 |①---|
口口口口 |--②-|
口口口① |----|
口口口口 |----|
30
口口口口 |①---|
口口口口 |----|
口口①口 |②---|
口②口口 |----|
31
口②②口 |①---|
口口口口 |--②-|
①口口口 |----|
口口口口 |----|
32
口口口口 |①---|
口①口口 |----|
口②口口 |②---|
口口口口 |----|
33
口口口口 |①---|
口口①口 |----|
口口②口 |②---|
口口口口 |----|
34
①口口② |①---|
口口口口 |----|
口口口口 |②---|
口口口口 |----|
35
口口口口 |①---|
口口口口 |----|
口口口口 |②---|
①口口② |----|
36
①口口② |①---|
口口口口 |②---|
口口口口 |③---|
③口口④ |④---|
37
口口口口 |①---|
口口口口 |----|
口①①口 |----|
口口口口 |----|
38
口口口口 |①---|
口①①口 |----|
口口口口 |----|
口口口口 |----|
39
口口口口 |①---|
①①口口 |----|
口口口口 |②---|
口②口口 |----|
40
口口口口 |①---|
口口①① |----|
口口口口 |②---|
口口②口 |----|
41
口口口口 |①---|
①口口② |②---|
口③④口 |③---|
口口口口 |④---|
42
口①①口 |①---|
口口口口 |----|
口口口口 |----|
口口口口 |----|
43
口口口口 |①---|
①①口口 |----|
口口口口 |②---|
口②口口 |----|
44
口口口口 |①---|
口口①① |----|
口口口口 |②---|
口口②口 |----|
45
口口口口 |①---|
①口口② |②---|
口③④口 |③---|
口口口口 |④---|
46
口①①口 |①---|
口口口口 |----|
口口口口 |----|
口口口口 |----|
47
口口口口 |①---|
①口口口 |----|
①口口口 |----|
口口口口 |----|
48
口口口口 |①---|
口①口口 |----|
口口口口 |----|
口口口口 |----|
49
口口口口 |①---|
口口口① |----|
口口口① |----|
口口口口 |----|
50
口口口口 |①---|
口口①口 |----|
口口口口 |----|
口口口口 |----|
51
口口口口 |①---|
口①②口 |----|
口口口口 |②---|
口口口口 |----|
52
口口口口 |①---|
口口口口 |----|
口①②口 |②---|
口口口口 |----|
53
①口口① |①---|
口口口口 |----|
口口口口 |----|
口口口口 |----|
54
口③③口 |①---|
口②②口 |②---|
口①①口 |③---|
口口口口 |----|
55
①②口口 |①---|
口口口口 |----|
口口口口 |②---|
口口口口 |----|
56
口口口口 |①---|
口口①② |----|
口口口口 |②---|
口口口口 |----|
57
口口②① |①---|
口口口口 |----|
口口口口 |②---|
口口口口 |----|
58
口口口口 |①---|
②①口口 |----|
口口口口 |②---|
口口口口 |----|
59
口口口口 |①---|
口口口口 |----|
①②口口 |②---|
口口口口 |----|
60
口口口口 |①---|
口口口口 |----|
口口①② |②---|
口口口口 |----|
61
口口口口 |①---|
口口口口 |②---|
口口口口 |③---|
④③②① |④---|
62
口②②口 |①---|
口口口口 |----|
口①①口 |②---|
口口口口 |----|
63
口口口口 |①---|
①①口口 |----|
口口口口 |②---|
口②口口 |----|
64
口口口口 |①---|
口口①① |----|
口口口口 |②---|
口口②口 |----|
65
口口口口 |①---|
①口口② |②---|
口③④口 |③---|
口口口口 |④---|
66
口①①口 |①---|
口口口口 |----|
口口口口 |----|
口口口口 |----|
67
口口口口 |①---|
①①口口 |----|
口口口口 |②---|
口②口口 |----|
68
口口口口 |①---|
口口①① |----|
口口口口 |②---|
口口②口 |----|
69
口口口口 |①---|
①口口② |②---|
口③④口 |③---|
口口口口 |④---|
70
口①①口 |①---|
口口口口 |----|
口口口口 |----|
口口口口 |----|
71
口口口口 |①---|
①口口口 |----|
①口口口 |----|
口口口口 |----|
72
口口口口 |①---|
口①口口 |----|
口口口口 |----|
口口口口 |----|
73
口口口口 |①---|
口口口① |----|
口口口① |----|
口口口口 |----|
74
口口口口 |①---|
口口①口 |----|
口口口口 |----|
口口口口 |----|
75
口口口口 |①---|
口①②口 |----|
口口口口 |②---|
口口口口 |----|
76
口口口口 |①---|
口口口口 |----|
口①②口 |②---|
口口口口 |----|
77
①口口① |①---|
口口口口 |----|
口口口口 |----|
口口口口 |----|
78
口③③口 |①---|
口②②口 |②---|
口①①口 |③---|
口口口口 |----|
79
口口口口 |①---|
口口口口 |----|
口口口口 |----|
口①①口 |----|
80
口③③口 |①-②-|
口口口口 |--③-|
①口口② |----|
口口口口 |----|
81
口口口口 |①---|
口口口口 |----|
口口口口 |----|
口①①口 |----|
82
口③③口 |①-②-|
口口口口 |--③-|
①口口② |----|
口口口口 |----|
83
口口口口 |①---|
口口口① |----|
口口②口 |②---|
口口口口 |----|
84
口口口口 |①---|
口①口口 |----|
②口口口 |②---|
口口口口 |----|
85
口①①口 |①---|
口口口口 |----|
口口口口 |----|
口口口口 |----|
86
口口口口 |----|
口口口口 |----|
口口口口 |----|
口口口口 |----|
87
口口口口 |----|
口口口口 |----|
口口口口 |----|
口口口口 |----|
88
③口口③ |①---|
口②②口 |--②-|
口①①口 |----|
口口口口 |③---|


不确定度: 0

最終更新:2012年11月14日 15:31