オムライス
オーロラ三人娘

ADVANCED

Level: 5
BPM: 177
Notes: 518

1
口口口口 |----|
口口口口 |----|
口口口口 |----|
口口口口 |----|
2
口④③口 |①---|
⑤口口② |--②-|
口⑥口口 |③-④-|
口①①口 |⑤-⑥-|
3
口口口③ |①-②-|
口口口口 |--③-|
口口口② |----|
口口口① |----|
4
口③④口 |①---|
②口口⑤ |--②-|
口口⑥口 |③-④-|
口①①口 |⑤-⑥-|
5
③口口口 |①-②-|
口口口口 |--③-|
②口口口 |----|
①口口口 |----|
6
口④②口 |①-②-|
口口⑦口 |③-④-|
①⑥口③ |⑤-⑥-|
口⑧⑤口 |⑦-⑧-|
7
④口口⑤ |①-②-|
口口口③ |③-④-|
②口口口 |⑤---|
口⑥⑥① |⑥---|
8
口口口口 |①---|
口口口口 |----|
①口口① |----|
口口口口 |----|
9
口③③口 |①---|
口③③口 |--②-|
口口口口 |----|
①口口② |③---|
10
②口口① |----|
口口③口 |①---|
口口口④ |②---|
口口口口 |③-④-|
11
③口口口 |①-②-|
口口口口 |--③-|
口②口口
口口①口

口口口口
口口口口
口口口口 |--④-|
④⑤⑥口 |⑤-⑥-|
12
口口口口 |①-②-|
口口④口 |③-④-|
口⑤③② |⑤-⑥-|
⑥口⑦① |--⑦-|
13
①②③④ |①-②-|
⑧⑦⑥⑤ |③-④-|
口口口口 |⑤-⑥-|
口口口口 |⑦-⑧-|
14
口口口口 |①-②-|
口口口口 |③-④-|
①②③④ |⑤-⑥-|
⑧⑦⑥⑤ |⑦-⑧-|
15
①口口② |----|
口③口口 |①---|
④口口口 |②---|
口口口口 |③-④-|
16
口口口③ |①-②-|
口口口口 |--③-|
口口②口
口①口口

口口口口
口口口口
口口口口 |--④-|
口⑥⑤④ |⑤-⑥-|
17
口口口口 |①-②-|
⑥口⑤口 |③---|
②③口④ |④-⑤-|
①口口口 |--⑥-|
18
①②③④ |①-②-|
⑧⑦⑥⑤ |③-④-|
口口口口 |⑤-⑥-|
口口口口 |⑦-⑧-|
19
口口口口 |①-②-|
口口口口 |③-④-|
①②③④ |⑤-⑥-|
⑧⑦⑥⑤ |⑦-⑧-|
20
①口②口 |①---|
口口口口 |②---|
④口③口 |③---|
口口口口 |④---|
21
口口口口 |①---|
①口口② |--②-|
口口口口 |----|
②口口① |----|
22
口②口① |①---|
口口口口 |②---|
口③口④ |③---|
口口口口 |④---|
23
②口口① |①---|
口口③口 |②-③-|
口③口口 |----|
①口口② |----|
24
口⑥⑤口 |①---|
口④③口 |②---|
口②口口 |③-④-|
口口①口 |⑤-⑥-|
25
②口口① |①---|
口④③口 |②---|
口⑥⑤口 |③-④-|
口口口口 |⑤-⑥-|
26
②口口① |①---|
②口口① |----|
口口口口 |②---|
口口口口 |----|
27
口口口口 |①---|
口口口口 |----|
口口口口 |②---|
①①②② |----|
28
口②口① |①---|
口口口口 |②---|
口③口④ |③---|
口口口口 |④---|
29
口口口口 |①---|
②口口① |--②-|
口口口口 |----|
①口口② |----|
30
①口②口 |①---|
口口口口 |②---|
④口③口 |③---|
口口口口 |④---|
31
①口口② |①---|
口③口口 |②-③-|
口口③口 |----|
②口口① |----|
32
口口口口 |①---|
⑥口口⑤ |②---|
④口口③ |③-④-|
口②①口 |⑤-⑥-|
33
口②③口 |①---|
口④①口 |②---|
⑥口⑤口 |③-④-|
口口口口 |⑤-⑥-|
34
口②口① |①---|
口口口口 |----|
口口口口 |②---|
口①口② |----|
35
②口①口 |①---|
口口口口 |----|
口口口口 |②---|
①口②口 |----|
36
④②③① |①---|
口口口口 |②---|
口口口口 |③---|
③①④② |④---|
37
口口口① |①---|
口口口口 |----|
口口口口 |----|
口①口口 |----|
38
口口口口 |①---|
①口①口 |----|
口①口①
口口口口

口口口口
口口口口
③口口③ |----|
口②②口 |②-③-|
39
口②②口 |①---|
①③③① |②---|
口口口口 |③---|
口口口④ |④---|
40
②⑤口④ |①---|
口③③口 |②-③-|
④口口② |④---|
①口口口 |⑤---|
41
口口①口 |①---|
②②③③ |②---|
④④口口 |③---|
口口口口 |④---|
42
口口口口 |①---|
口口口口 |----|
口口①①
口口口口

口口口口
口口口口
②口口③ |----|
口口口口 |②-③-|
43
口②②④ |①---|
口①①口 |②---|
口口口口 |③---|
口③口口 |④---|
44
口③④口 |①---|
口口口② |②-③-|
①⑤口口 |④---|
口口口口 |⑤---|
45
①口口③ |①---|
口②④口 |②---|
口④②口 |③---|
③口口① |④---|
46
口口口口 |①---|
①口口① |----|
①口口① |----|
口口口口 |----|
47
口口⑥口 |①-②-|
⑤⑦②⑧ |③-④-|
口③口④ |⑤-⑥-|
①口口口 |⑦-⑧-|
48
③口口③ |①-②-|
口口口口 |--③-|
口②②口 |----|
口①①口 |----|
49
口③①口 |①-②-|
⑦口口⑤ |③-④-|
⑧口口⑥ |⑤-⑥-|
口④②口 |⑦-⑧-|
50
①口口① |①-②-|
口②②口 |--③-|
口口口口 |----|
③口口③ |----|
51
口⑤⑧口 |①-②-|
④⑥⑦口 |③-④-|
③口口口 |⑤-⑥-|
口②①口 |⑦-⑧-|
52
口口口口 |①-②-|
口口⑥① |③-④-|
口⑤口② |⑤---|
口④③口 |⑥---|
53
①口口① |①---|
口口口口 |----|
口口口口 |----|
口口口口 |----|
54
口③口③ |①---|
口口③口 |②---|
②口口① |③---|
口口口口 |----|
55
口口口口 |①-②-|
口口口口 |③-④-|
⑧⑦⑥⑤ |⑤-⑥-|
①②③④ |⑦-⑧-|
56
⑧⑦⑥⑤ |①-②-|
①②③④ |③-④-|
口口口口 |⑤-⑥-|
口口口口 |⑦-⑧-|
57
口口口口 |①-②-|
口口口口 |③-④-|
⑧⑦⑥⑤ |⑤-⑥-|
①②③④ |⑦-⑧-|
58
⑧⑦⑥⑤ |①-②-|
①②③④ |③-④-|
口口口口 |⑤-⑥-|
口口口口 |⑦-⑧-|
59
口口口口 |①-②-|
口口口口 |③-④-|
⑤⑥⑦⑧ |⑤-⑥-|
①②③④ |⑦-⑧-|
60
⑤⑥⑦⑧ |①-②-|
①②③④ |③-④-|
口口口口 |⑤-⑥-|
口口口口 |⑦-⑧-|
61
口④④口 |①---|
口③③口 |②---|
口②②口 |③---|
口①①口 |④---|
62
①口口④ |①-②-|
口⑤⑤口 |③-④-|
⑦口口⑦ |⑤---|
③⑥⑥② |⑥-⑦-|
63
口②②口 |①---|
①③③① |②---|
口口口口 |③---|
口口口④ |④---|
64
②⑤口④ |①---|
口③③口 |②-③-|
④口口② |④---|
①口口口 |⑤---|
65
口口①口 |①---|
②②③③ |②---|
④④口口 |③---|
口口口口 |④---|
66
口口口口 |①---|
口口口口 |----|
口口①①
口口口口

口口口口
口口口口
②口口③ |----|
口口口口 |②-③-|
67
口②②④ |①---|
口①①口 |②---|
口口口口 |③---|
口③口口 |④---|
68
口③④口 |①---|
口口口② |②-③-|
①⑤口口 |④---|
口口口口 |⑤---|
69
①口口③ |①---|
口②④口 |②---|
口④②口 |③---|
③口口① |④---|
70
口口口口 |①---|
①口口① |----|
①口口① |----|
口口口口 |----|
71
口口⑥口 |①-②-|
⑤⑦②⑧ |③-④-|
口③口④ |⑤-⑥-|
①口口口 |⑦-⑧-|
72
③口口③ |①-②-|
口口口口 |--③-|
口②②口 |----|
口①①口 |----|
73
口③①口 |①-②-|
⑦口口⑤ |③-④-|
⑧口口⑥ |⑤-⑥-|
口④②口 |⑦-⑧-|
74
①口口① |①-②-|
口②②口 |--③-|
口口口口 |----|
③口口③ |----|
75
口⑤⑧口 |①-②-|
④⑥⑦口 |③-④-|
③口口口 |⑤-⑥-|
口②①口 |⑦-⑧-|
76
口口口口 |①-②-|
口口⑥① |③-④-|
口⑤口② |⑤---|
口④③口 |⑥---|
77
①口口① |①---|
口口口口 |----|
口口口口 |----|
口口口口 |----|
78
口③口③ |①---|
口口③口 |②---|
②口口① |③---|
口口口口 |----|
79
口④③口 |①---|
⑤口口② |--②-|
口⑥口口 |③-④-|
口①①口 |⑤-⑥-|
80
口口口③ |①-②-|
口口口口 |--③-|
口口口② |----|
口口口① |----|
81
口③④口 |①---|
②口口⑤ |--②-|
口口⑥口 |③-④-|
口①①口 |⑤-⑥-|
82
③口口口 |①-②-|
口口口口 |--③-|
②口口口 |----|
①口口口 |----|
83
口④②口 |①-②-|
口口⑦口 |③-④-|
①⑥口③ |⑤-⑥-|
口⑧⑤口 |⑦-⑧-|
84
④口口⑤ |①-②-|
口口口③ |③-④-|
②⑥⑥口 |⑤---|
口口口① |⑥---|
85
④口口口 |①---|
③①①口 |②---|
②口口口 |③---|
①口口口 |④---|
86
口④口口 |①---|
口③口口 |②---|
口②口口 |③---|
口①口口 |④---|
87
口口④口 |①---|
口口③口 |②---|
口口②口 |③---|
口口①口 |④---|
88
口③口③ |①---|
口口③口 |--②-|
②口口① |----|
口口口口 |③---|


不确定度: 0

最終更新:2012年11月14日 15:31