オムライス
オーロラ三人娘

EXTREME

Level: 8
BPM: 177
Notes: 759

1
口口口口 |----|
口口口口 |----|
口口口口 |----|
口口口口 |----|
2
⑤口③口 |①---|
口④口② |--②-|
口①口① |③-④-|
⑥口①口 |⑤-⑥-|
3
口①③③ |①-②-|
②口⑤口 |--③-|
口④①② |--④-|
口③②① |⑤---|
4
口口口口 |①---|
②口口口 |--②-|
口口①①
口口①①

口③口⑤
口口④口
口口口口 |③-④-|
口口口⑥ |⑤-⑥-|
5
③③①口 |①-②-|
口⑤口② |--③-|
②①④口 |--④-|
①②③口 |⑤---|
6
口④②口 |①-②-|
口口⑦口 |③-④-|
①⑥口③ |⑤-⑥-|
口⑧⑤口 |⑦-⑧-|
7
①⑤口④ |①-②-|
②口⑥③ |③-④-|
③⑥口② |⑤---|
④口⑤① |⑥---|
8
口口④口 |①---|
③①口口 |②---|
口口①② |③---|
口①口口 |④---|
9
口③③口 |①---|
口③③口 |--②-|
①口口② |----|
口①②口 |③---|
10
②口口① |----|
口口③口 |①---|
口口口④ |②---|
口口口口 |③-④-|
11
③口口口 |①-②-|
口口口口 |--③-|
口②口口
口口①口

口口口口
口口口口
口口口口 |--④-|
④⑤⑥口 |⑤-⑥-|
12
口口口口 |①-②-|
口口④口 |③-④-|
口⑤③② |⑤-⑥-|
⑥口⑦① |--⑦-|
13
①⑧④⑤ |①-②-|
⑦②⑥③ |③-④-|
③⑥②⑦ |⑤-⑥-|
⑤④⑧① |⑦-⑧-|
14
①⑧④⑤ |①-②-|
⑦②⑥③ |③-④-|
③⑥②⑦ |⑤-⑥-|
⑤④⑧① |⑦-⑧-|
15
①口口② |----|
口③口口 |①---|
④口口口 |②---|
口口口口 |③-④-|
16
口口口③ |①-②-|
口口口口 |--③-|
口口②口
口①口口

口口口口
口口口口
口口口口 |--④-|
口⑥⑤④ |⑤-⑥-|
17
口口口口 |①-②-|
⑥口⑤口 |③---|
②③口④ |④-⑤-|
①口口口 |--⑥-|
18
①⑧④⑤ |①-②-|
⑦②⑥③ |③-④-|
③⑥②⑦ |⑤-⑥-|
⑤④⑧① |⑦-⑧-|
19
①⑧④⑤ |①-②-|
⑦②⑥③ |③-④-|
③⑥②⑦ |⑤-⑥-|
⑤④⑧① |⑦-⑧-|
20
①口②口 |①---|
口③口④ |②---|
④口③口 |③---|
口②口① |④---|
21
①①②口 |①---|
③口②④ |--②-|
口②口口 |--③-|
口②①① |④---|
22
口②口① |①---|
④口③口 |②---|
口③口④ |③---|
①口②口 |④---|
23
②口口① |①---|
口③③口 |②-③-|
④③③⑤ |--④-|
①口口② |⑤---|
24
口⑥⑤口 |①---|
口④③口 |②---|
口②口口 |③-④-|
口口①口 |⑤-⑥-|
25
②口口① |①---|
口④③口 |②---|
口⑥⑤口 |③-④-|
口口口口 |⑤-⑥-|
26
②口口① |①---|
②口口① |----|
口口口口 |②---|
②口口① |----|
27
口口口口 |①---|
⑤③④⑥ |----|
⑦②②⑧ |②-③④|
口①①口 |⑤⑥⑦⑧|
28
①口②口 |①---|
口③口④ |②---|
④口③口 |③---|
口②口① |④---|
29
①①②口 |①---|
口口②口 |--②-|
③②口④ |--③-|
口②①① |④---|
30
口②口① |①---|
④口③口 |②---|
口③口④ |③---|
①口②口 |④---|
31
②口口① |①---|
④③③⑤ |②-③-|
口③③口 |--④-|
①口口② |⑤---|
32
口口口口 |①---|
⑥口口⑤ |②---|
④口口③ |③-④-|
口②①口 |⑤-⑥-|
33
④②③⑤ |①---|
口口①口 |②---|
口⑥⑥口 |③-④-|
口口口口 |⑤-⑥-|
34
口口口口 |①---|
②①②① |----|
口口口口 |②---|
①②①② |----|
35
②①②① |①---|
口口口口 |----|
①②①② |②---|
口口口口 |----|
36
④①④① |①---|
②③②③ |②---|
①④①④ |③---|
③②③② |④---|
37
口①口① |①---|
口口口口 |----|
①口①口 |----|
口口口口 |----|
38
口口口口 |①---|
①①①① |----|
③①①③ |----|
口②②口 |②-③-|
39
口②②口 |①---|
①③③① |②---|
口口口口 |③---|
口口口④ |④---|
40
②口口④ |①---|
⑤③③口 |②-③-|
④口口② |④---|
①口口⑤ |⑤---|
41
口口口口 |①---|
口②③① |②---|
③④口② |③---|
①口口④ |④---|
42
①口口口 |①---|
口⑤口② |②---|
③④①口 |③---|
①口口④ |④-⑤-|
43
②口②④ |①---|
①口①口 |②---|
口口口口 |③---|
口口③口 |④---|
44
口③④口 |①---|
口口口② |②-③-|
①口口口 |④---|
⑤口口口 |⑤---|
45
①②③④ |①---|
②①④③ |②---|
③④①② |③---|
④③②① |④---|
46
①口口口 |①---|
口①口④ |②---|
③口①② |③---|
口口口① |④---|
47
口口⑥口 |①-②-|
⑤⑦②⑧ |③-④-|
口③口④ |⑤-⑥-|
①口口口 |⑦-⑧-|
48
③口口③ |①-②-|
口口口口 |--③-|
③②②③ |----|
口①①口 |----|
49
口③①口 |①-②-|
⑦口口⑤ |③-④-|
⑧口口⑥ |⑤-⑥-|
口④②口 |⑦-⑧-|
50
①口口① |①-②-|
口②②口 |--③-|
口③③口 |----|
③口口③ |----|
51
口⑤⑧口 |①-②-|
④⑥⑦口 |③-④-|
③口口口 |⑤-⑥-|
口②①口 |⑦-⑧-|
52
口口口口 |①-②-|
口口⑥① |③-④-|
⑥⑤口② |⑤---|
口④③⑤ |⑥---|
53
①①①① |①---|
口口口口 |----|
口口口口 |----|
口口口口 |----|
54
口③口③ |①---|
口③③③ |②---|
②口③① |③---|
口②①口 |----|
55
口口③⑦ |①-②-|
口口口口 |③-④-|
④③⑦⑧ |⑤-⑥-|
⑤⑥②① |⑦-⑧-|
56
④③⑦⑧ |①-②-|
⑤⑥②① |③-④-|
口③⑦口 |⑤-⑥-|
口口口口 |⑦-⑧-|
57
⑤⑥⑦⑧ |①-②-|
口口口口 |③-④-|
③⑦口口 |⑤-⑥-|
④③②① |⑦-⑧-|
58
口口口口 |①-②-|
④③②① |③-④-|
⑤⑥⑦⑧ |⑤-⑥-|
口口③⑦ |⑦-⑧-|
59
①②③④ |①-②-|
⑤⑥⑦⑧ |③-④-|
口口口口 |⑤-⑥-|
口口口口 |⑦-⑧-|
60
口口口口 |①-②-|
口口口口 |③-④-|
①②③④ |⑤-⑥-|
⑤⑥⑦⑧ |⑦-⑧-|
61
①②③④ |①②③④|
⑧⑦⑥⑤ |⑤⑥⑦⑧|
⑨⑩⑪⑫ |⑨⑩⑪⑫|
⑯⑮⑭⑬ |⑬⑭⑮⑯|
62
①口口④ |①-②-|
口③②口 |③-④-|
⑦⑤⑤⑦ |⑤---|
口⑥⑥口 |⑥-⑦-|
63
口②②口 |①---|
①③③① |②---|
口口口口 |③---|
口口口④ |④---|
64
②口口④ |①---|
⑤③③口 |②-③-|
④口口② |④---|
①口口⑤ |⑤---|
65
口口口口 |①---|
口②③① |②---|
③④口② |③---|
①口口④ |④---|
66
①口口口 |①---|
口⑤口② |②---|
③④①口 |③---|
①口口④ |④-⑤-|
67
②口②④ |①---|
①口①口 |②---|
口口口口 |③---|
口口③口 |④---|
68
口③④口 |①---|
口口口② |②-③-|
①口口口 |④---|
⑤口口口 |⑤---|
69
①②③④ |①---|
②①④③ |②---|
③④①② |③---|
④③②① |④---|
70
①口口口 |①---|
口①口④ |②---|
③口①② |③---|
口口口① |④---|
71
口口⑥口 |①-②-|
⑤⑦②⑧ |③-④-|
口③口④ |⑤-⑥-|
①口口口 |⑦-⑧-|
72
③口口③ |①-②-|
口口口口 |--③-|
③②②③ |----|
口①①口 |----|
73
口③①口 |①-②-|
⑦口口⑤ |③-④-|
⑧口口⑥ |⑤-⑥-|
口④②口 |⑦-⑧-|
74
①口口① |①-②-|
口②②口 |--③-|
口③③口 |----|
③口口③ |----|
75
口⑤⑧口 |①-②-|
④⑥⑦口 |③-④-|
③口口口 |⑤-⑥-|
口②①口 |⑦-⑧-|
76
口口口口 |①-②-|
口口⑥① |③-④-|
⑥⑤口② |⑤---|
口④③⑤ |⑥---|
77
①①①① |①---|
口口口口 |----|
口口口口 |----|
口口口口 |----|
78
口③口③ |①---|
口③③③ |②---|
②口③① |③---|
口②①口 |----|
79
⑤口③口 |①---|
口④口② |--②-|
口①口① |③-④-|
⑥口①口 |⑤-⑥-|
80
口①③③ |①-②-|
②口⑤口 |--③-|
口④①② |--④-|
口③②① |⑤---|
81
口口口口 |①---|
②口口口 |--②-|
口口①①
口口①①

口③口⑤
口口④口
口口口口 |③-④-|
口口口⑥ |⑤-⑥-|
82
③③①口 |①-②-|
口⑤口② |--③-|
②①④口 |--④-|
①②③口 |⑤---|
83
口④②口 |①-②-|
口口⑦口 |③-④-|
①⑥口③ |⑤-⑥-|
口⑧⑤口 |⑦-⑧-|
84
①⑤口④ |①-②-|
②口⑥③ |③-④-|
③⑥口② |⑤---|
④口⑤① |⑥---|
85
⑤口口⑤ |①---|
口①口④ |②-③-|
③口①② |④---|
②口口① |⑤---|
86
⑤口⑤口 |①---|
口口④口 |②-③-|
③口②口 |④---|
②口①口 |⑤---|
87
⑤⑤口口 |①---|
口④口口 |②-③-|
③②口口 |④---|
②①口口 |⑤---|
88
口③口③ |①---|
口③③③ |--②-|
②口③① |----|
口②①口 |③---|


不确定度: 0

最終更新:2012年11月14日 15:30