猫がニャ~て、犬がワンッ!
neco眠る with 二階堂和美

ADVANCED

Level: 6
BPM: 212
Notes: 344

BPM在212附近飄忽不定
1
口口口口 |----|
口口口口 |----|
口口口口 |----|
口口口口 |----|
2
口④口口 |①---|
口③口口 |②---|
口②口口 |③---|
①①口口 |④---|
3
口口①① |①---|
口口②口 |②---|
口口③口 |③---|
口口④口 |④---|
4
口④口口 |①---|
口③口口 |②---|
口②口口 |③---|
①①口口 |④---|
5
口口①① |①---|
口口②口 |②---|
口口③口 |③---|
口口④口 |④---|
6
口④口口 |①---|
口③口口 |②---|
口②口口 |③---|
①①口口 |④---|
7
口口①① |①---|
口口②口 |②---|
口口③口 |③---|
口口④口 |④---|
8
口④口口 |①---|
口③口口 |②---|
口②口口 |③---|
①①口口 |④---|
9
口口①① |①---|
口口口② |②---|
口口③口 |③---|
口口口④ |④---|
10
口④口口 |①---|
口③口口 |②---|
口②口口 |③---|
①①口口 |④---|
11
口口①① |①---|
口口②口 |②---|
口口③口 |③---|
口口④口 |④---|
12
口④口口 |①---|
口③口口 |②---|
口②口口 |③---|
①①口口 |④---|
13
口口①① |①---|
口口②口 |②---|
口口③口 |③---|
口口④口 |④---|
14
口④口口 |①---|
口③口口 |②---|
口②口口 |③---|
①①口口 |④---|
15
口口①① |①---|
口口②口 |②---|
口口③口 |③---|
口口④口 |④---|
16
口④口口 |①---|
口③口口 |②---|
口②口口 |③---|
①①口口 |④---|
17
②④④② |①---|
①③③① |②---|
口口口口 |③---|
口口口口 |④---|
18
口口口口 |----|
①③②口 |①---|
口口口口 |②---|
口口口口 |③---|
19
口口口口 |①---|
口③口口 |----|
口②口口 |②---|
口口①口 |③---|
20
口③口口 |①---|
②口口口 |----|
①口口① |②---|
口口口口 |③---|
21
口口口口 |①---|
口口①口 |----|
口口口口 |----|
口口口口 |----|
22
口③③口 |①---|
口口口口 |②---|
口口②① |----|
口口口口 |③---|
23
口口口口 |①---|
口①①口 |----|
口口口口 |②---|
口②②口 |----|
24
口口口口 |①---|
口口口口 |----|
①口口① |----|
口口口口 |----|
25
口口口口 |----|
口口口口 |----|
口口口口 |----|
口口口口 |----|
26
口①口口 |①---|
口①口② |②---|
口口口口 |----|
口③口口 |③---|
27
口口③口 |①---|
②口①口 |②---|
口口①口 |----|
口口口口 |③---|
28
口口口口 |①---|
口②③口 |②---|
口①④口 |③---|
口口口口 |④---|
29
口口口口 |①---|
口口口口 |----|
口①口口 |----|
口口口口 |----|
30
口①口口 |①---|
③①口② |②---|
口口口口 |----|
口口口口 |③---|
31
口口口口 |①---|
口口口口 |②---|
口②①口 |③---|
口③④口 |④---|
32
口口口口 |①---|
口①②口 |②---|
口③④口 |③---|
口口口口 |④---|
33
口口口口 |①---|
①口口① |----|
口口口口 |----|
口口口口 |----|
34
口口口口 |①---|
①口②口 |②---|
口③口口 |----|
口口口口 |③---|
35
①口①口 |①---|
口①口口 |----|
②口口口 |----|
口口口口 |②---|
36
口口④口 |①---|
口③口口 |②---|
口口②口 |③---|
口①口口 |④---|
37
口口口口 |①---|
口口口口 |----|
口①口口 |----|
口口口口 |----|
38
口口口口 |①---|
口口口口 |②---|
口①口② |----|
口口③口 |③---|
39
口口口口 |①---|
口①口① |----|
②口①口 |----|
口口口口 |②---|
40
口④口口 |①---|
口口③口 |②---|
口②口口 |③---|
口口①口 |④---|
41
口口口口 |①---|
口口口口 |----|
口口①口 |----|
口口口口 |----|
42
口口④口 |①---|
口口③口 |②---|
口口②口 |③---|
①①口口 |④---|
43
口口口口 |①---|
口口口④ |②---|
①①口③ |③---|
口口口② |④---|
44
口口口口 |①---|
①①④口 |②---|
口口③口 |③---|
口口②口 |④---|
45
②③③② |①---|
口④④口 |②---|
①口口① |③---|
口口口口 |④---|
46
口口口口 |①---|
③口口③ |②---|
口口口口 |----|
①口口② |③---|
47
口口口口 |①---|
口口口口 |----|
口①②口 |②---|
口②①口 |----|
48
口口口口 |①---|
口①①口 |----|
口口口口 |----|
口口口口 |----|
49
口口口口 |----|
口口口口 |----|
口口②口 |①---|
口①口口 |②---|
50
口口口口 |①---|
①①①口 |----|
口②口口 |②---|
口口口口 |----|
51
口②口② |①---|
口②口② |----|
口口①口 |②---|
口口口口 |----|
52
口口口口 |①---|
口口口口 |----|
①②①口 |②---|
口口口口 |----|
53
口③口口 |①---|
②口口口 |----|
口口①口 |②---|
口口口口 |③---|
54
口口①① |①---|
口口①① |----|
口②口口 |②---|
口口口口 |----|
55
口口口口 |①---|
口②口② |----|
口口①② |②---|
口口口口 |----|
56
口口口口 |①---|
口口口口 |----|
口②口口 |②---|
①口①口 |----|
57
口口口口 |①---|
口口口口 |----|
口口③① |②---|
口②口口 |③---|
58
口口口口 |①---|
①口①口 |----|
口②口口 |②---|
口口口口 |----|
59
口②口② |①---|
口②口② |----|
口口①口 |②---|
口口口口 |----|
60
口口口口 |①---|
口口口口 |----|
①②①口 |②---|
口口口口 |----|
61
口③口口 |①---|
②口口口 |----|
口口①口 |②---|
口口口口 |③---|
62
口口①① |①---|
口口①① |----|
口②口口 |②---|
口口口口 |----|
63
口口口口 |①---|
口②口② |----|
口口①口 |②---|
口口口口 |----|
64
口口口口 |①---|
口口口口 |----|
②口口口 |②---|
①口①口 |----|
65
口口口口 |①---|
口③④口 |②---|
口①②口 |③---|
口口口口 |④---|
66
①口口② |①---|
③口口④ |②---|
口口口口 |③---|
口口口口 |④---|
67
口口口口 |①---|
口口口口 |②---|
④①④① |③---|
③②③② |④---|
68
②口口① |①---|
④口口③ |②---|
口口口口 |③---|
口口口口 |④---|
69
口口口口 |①---|
口口口口 |②---|
①④①④ |③---|
②③②③ |④---|
70
口①②口 |①---|
口③④口 |②---|
口口口口 |③---|
口口口口 |④---|
71
口口口口 |①---|
口口口口 |②---|
④①④① |③---|
③②③② |④---|
72
口口口口 |①---|
口①口① |②---|
④②④② |③---|
口③口③ |④---|
73
口口口口 |①---|
①口①口 |----|
口②③口 |②---|
口口口口 |③---|
74
①口口② |①---|
③口口④ |②---|
口口口口 |③---|
口口口口 |④---|
75
口口口口 |①---|
口口口口 |②---|
④①④① |③---|
③②③② |④---|
76
②口口① |①---|
④口口③ |②---|
口口口口 |③---|
口口口口 |④---|
77
口口口口 |①---|
口口口口 |②---|
①④①④ |③---|
②③②③ |④---|
78
口①②口 |①---|
口③④口 |②---|
口口口口 |③---|
口口口口 |④---|
79
口口口口 |①---|
口口口口 |②---|
④①④① |③---|
③②③② |④---|
80
口③④口 |①---|
口口②口 |②---|
口①口口 |③---|
口口口口 |④---|

BPM: 192
81
口口口口 |①---|
③③③③ |②---|
口①口口 |③---|
②口口② |----|


不確定度: 0

最終更新:2013年05月28日 15:13