猫がニャ~て、犬がワンッ!
neco眠る with 二階堂和美

EXTREME

Level: 7
BPM: 212
Notes: 455

BPM在212附近飄忽不定
1
口口口口 |----|
口口口口 |----|
口口口口 |----|
口口口口 |----|
2
口④口口 |①---|
口③口口 |②---|
口②口口 |③---|
①①口① |④---|
3
①口①① |①---|
口口②口 |②---|
口口③口 |③---|
口口④口 |④---|
4
口④口口 |①---|
口③口口 |②---|
口②口口 |③---|
①①口① |④---|
5
①口①① |①---|
口口②口 |②---|
口口③口 |③---|
口口④口 |④---|
6
口④口口 |①---|
口③口口 |②---|
口②口口 |③---|
①①口① |④---|
7
①口①① |①---|
口口②口 |②---|
口口③口 |③---|
口口④口 |④---|
8
口④口口 |①---|
口③口口 |②---|
口②口口 |③---|
①①口① |④---|
9
①口①① |①---|
口口口② |②---|
口口③口 |③---|
口口④口 |④---|
10
口④口口 |①---|
口③口口 |②---|
口②口口 |③---|
①①口① |④---|
11
①口①① |①---|
口口②口 |②---|
口口③口 |③---|
口口④口 |④---|
12
口④口口 |①---|
口③口口 |②---|
口②口口 |③---|
①①口① |④---|
13
①口①① |①---|
口口②口 |②---|
口口③口 |③---|
口口④口 |④---|
14
口④口口 |①---|
口③口口 |②---|
口②口口 |③---|
①①口① |④---|
15
①口①① |①---|
口口②口 |②---|
口口③口 |③---|
口口④口 |④---|
16
口④口口 |①---|
口③口口 |②---|
口②口口 |③---|
①①口① |④---|
17
①④④① |①---|
口口口口 |②---|
口口口口 |③---|
②③③② |④---|
18
口口口口 |----|
口①口② |①---|
口口口口 |②---|
口口③口 |③---|
19
口口口口 |①---|
口③口口 |----|
①②①口 |②---|
口口口口 |③---|
20
口口口口 |①---|
③口口① |----|
口口②口 |②---|
口①口② |③---|
21
口口口口 |①---|
口口①口 |----|
口口口口 |----|
口口口口 |----|
22
口③口③ |①---|
口口口口 |②---|
口口口口 |----|
①②口口 |③---|
23
口口口口 |①---|
口口口口 |----|
①①②② |②---|
口口口口 |----|
24
口口口口 |①---|
口①①口 |----|
口口口口 |----|
口口口口 |----|
25
口口口口 |----|
口口口口 |----|
口口口口 |----|
口口口口 |----|
26
①口口口 |①---|
①口口口 |②---|
①口②口 |----|
口口口③ |③---|
27
③③口口 |①---|
口①口② |②---|
口①口口 |----|
口①口口 |③---|
28
口口口口 |①---|
④口口② |②---|
口口口口 |③---|
口③①口 |④---|
29
口口口口 |①---|
口口口口 |----|
口①①口 |----|
口口口口 |----|
30
③口口口 |①---|
口②口② |②---|
口口口口 |----|
口①口口 |③---|
31
口口口口 |①---|
口口①口 |②---|
口口②口 |③---|
口④③口 |④---|
32
口③④口 |①---|
口②口口 |②---|
①①口口 |③---|
口口口口 |④---|
33
口口口口 |①---|
口口①① |----|
口口口口 |----|
口口口口 |----|
34
口口口口 |①---|
③①③② |②---|
口口口口 |----|
口口口口 |③---|
35
①口①口 |①---|
口①口② |----|
①口①口 |----|
口①口口 |②---|
36
口口口口 |①---|
口①口口 |②---|
④①口② |③---|
③口口口 |④---|
37
口口口口 |①---|
①①口口 |----|
口口口口 |----|
口口口口 |----|
38
口口口口 |①---|
①③口③ |②---|
口口③口 |----|
口②口口 |③---|
39
口①口① |①---|
口口①口 |----|
口①②① |----|
口口①口 |②---|
40
①口口口 |①---|
②口口口 |②---|
③口口口 |③---|
口④④口 |④---|
41
口口口口 |①---|
口口口口 |----|
口①①口 |----|
口口口口 |----|
42
口口口口 |①---|
①②③④ |②---|
口①口口 |③---|
口口口口 |④---|
43
口口口口 |①---|
口④口口 |②---|
口③②① |③---|
口口①口 |④---|
44
口口口口 |①---|
③口口④ |②---|
①③④② |③---|
口①②口 |④---|
45
②④④③ |①---|
口①①口 |②---|
口口口口 |③---|
口口口口 |④---|
46
口口口口 |①---|
③③口口 |②---|
口口口② |----|
①口口口 |③---|
47
口口口口 |①---|
口口①口 |----|
口口口口 |②---|
口②②口 |----|
48
口口口口 |①---|
①口口① |----|
口口口口 |----|
口口口口 |----|
49
口口口口 |----|
口口②口 |----|
口口口口 |①---|
①口口口 |②---|
50
①③口口 |①---|
②④口口 |②---|
口①①① |③---|
口口口口 |④---|
51
口口①③ |①---|
口口②④ |②---|
③③口口 |③---|
口口口口 |④---|
52
①③口口 |①---|
②④口口 |②---|
口口口口 |③---|
口口①① |④---|
53
口口①③ |①---|
口口②④ |②---|
④④口口 |③---|
③③口口 |④---|
54
①③口口 |①---|
②④口口 |②---|
口口①口 |③---|
口口口口 |④---|
55
口口①③ |①---|
口口②④ |②---|
③口口口 |③---|
口③口口 |④---|
56
①③口口 |①---|
②④口口 |②---|
口口口① |③---|
口口①口 |④---|
57
口口①③ |①---|
口④②④ |②---|
口口口口 |③---|
③口口口 |④---|
58
①③口口 |①---|
②④口口 |②---|
口①①① |③---|
口口口口 |④---|
59
口口①③ |①---|
口口②④ |②---|
③③口口 |③---|
口口口口 |④---|
60
①③口口 |①---|
②④口口 |②---|
口口口口 |③---|
口口①① |④---|
61
口口①③ |①---|
口口②④ |②---|
④④口口 |③---|
③③口口 |④---|
62
①③口口 |①---|
②④口口 |②---|
口口①口 |③---|
口口口口 |④---|
63
口口①③ |①---|
口口②④ |②---|
③口口口 |③---|
口③口口 |④---|
64
①③口口 |①---|
②④口口 |②---|
口口口① |③---|
口口①口 |④---|
65
①口口① |①---|
③口口③ |②---|
④口口④ |③---|
②口口② |④---|
66
口①②口 |①---|
③②①④ |②---|
口口口口 |③---|
④口口③ |④---|
67
口①②口 |①---|
口③④口 |②---|
口④③口 |③---|
口②①口 |④---|
68
①口口② |①---|
口③④口 |②---|
口④③口 |③---|
②口口① |④---|
69
口①②口 |①---|
③口口④ |②---|
④口口③ |③---|
口②①口 |④---|
70
口口口口 |①---|
③①②④ |②---|
口②①口 |③---|
④口口③ |④---|
71
①口口② |①---|
口③④口 |②---|
口④③口 |③---|
口②①口 |④---|
72
③口口③ |①---|
②口口② |②---|
①口口① |③---|
口④④口 |④---|
73
口口口口 |①---|
②口口③ |----|
②①①③ |②---|
口口口口 |③---|
74
口①②口 |①---|
③②①④ |②---|
口口口口 |③---|
④口口③ |④---|
75
口①②口 |①---|
口③④口 |②---|
口④③口 |③---|
口②①口 |④---|
76
①口口② |①---|
口③④口 |②---|
口④③口 |③---|
②口口① |④---|
77
口①②口 |①---|
③口口④ |②---|
④口口③ |③---|
口②①口 |④---|
78
口口口口 |①---|
③①②④ |②---|
口②①口 |③---|
④口口③ |④---|
79
①口口② |①---|
口③④口 |②---|
口④③口 |③---|
口②①口 |④---|
80
口④④口 |①---|
②口口② |②---|
③口口③ |③---|
①口口① |④---|

BPM: 192
81
口口口口 |①---|
③③③③ |②---|
口①①口 |③---|
②②②② |----|


不確定度: 0

最終更新:2013年05月28日 15:13