MirrorDance
androp

EXTREME

Level: 8
BPM: 135
Notes: 531

1
口口口口 |----|
口口口口 |----|
口口口口 |----|
口口口口 |----|
2
口口口口 |①--②|
①①①口 |③-④-|
口口④口
③口口②

口口口⑤
⑦口口口
⑥口口⑦ |⑤--⑥|
口口⑥口 |--⑦-|
3
口口①口 |①--②|
口口口② |③-④-|
口口口口
口③④口

口⑦⑥⑦
口口口口
口⑥口口 |⑤--⑥|
口口口⑤ |--⑦-|
4
口口口口 |①--②|
①①①口 |③-④-|
口口④口
③口口②

口口口⑤
⑦口口口
⑥口口⑦ |⑤--⑥|
口口⑥口 |--⑦-|
5
口口①口 |①--②|
口口口② |③-④-|
口口口口
口③④口

口⑦⑥⑦
口口口口
口⑥口口 |⑤--⑥|
口口口⑤ |--⑦-|
6
口口口口 |①--②|
①①①口 |③-④-|
口口④口
③口口②

口口口⑤
⑧口⑦口
⑥口口⑧ |⑤--⑥|
口口⑥口 |⑦-⑧-|
7
口口①口 |①--②|
口口口② |③-④-|
口口口口
口③④口

口⑧⑥⑧
口口口口
⑦⑥口口 |⑤--⑥|
口口口⑤ |⑦-⑧-|
8
口口口口 |①--②|
①①①口 |③-④-|
口口④口
③口口②

口口口⑤
⑧口⑦口
⑥口口⑧ |⑤--⑥|
口口⑥口 |⑦-⑧-|
9
口口①口 |①--②|
口口口② |③-④-|
口口口口
口③④口

口口⑥口
⑦口口口
口⑥口口 |⑤--⑥|
口口口⑤ |⑦---|
10
口口④口 |①---|
口①①① |②-③-|
③⑦⑤⑥ |④-⑤-|
口口②口 |⑥-⑦-|
11
口⑦口口 |①-②-|
口①②口 |③-④-|
口口口⑥ |⑤---|
⑤④③口 |⑥-⑦-|
12
④口口口 |①---|
①①①③ |②-③-|
⑥口⑤口 |④-⑤-|
口②口⑦ |⑥-⑦-|
13
⑥口③④ |①-②-|
口②⑦⑤ |③-④-|
口口口口 |⑤---|
口①口口 |⑥-⑦-|
14
口⑤口口 |①---|
口⑥口④ |②-③-|
③①①① |④-⑤-|
口口②⑦ |⑥-⑦-|
15
④③口口 |①-②-|
口口口口 |③-④-|
口口②口
口口①口

口⑦口口
⑤口口⑥
口口口口 |⑤---|
口口口口 |⑥-⑦-|
16
口⑥④口 |①---|
口⑦⑤口 |②-③-|
①①①口 |④-⑤-|
口②③口 |⑥-⑦-|
17
口⑦口口 |①-②-|
口口口④ |③-④-|
口⑥⑤③ |⑤---|
①口口② |⑥-⑦-|
18
口口④口 |①---|
口①①① |②-③-|
③⑦⑤⑥ |④-⑤-|
口口②口 |⑥-⑦-|
19
口⑦口口 |①-②-|
口①②口 |③-④-|
口口口⑥ |⑤---|
⑤④③口 |⑥-⑦-|
20
④口口口 |①---|
①①①③ |②-③-|
⑥口⑤口 |④-⑤-|
口②口⑦ |⑥-⑦-|
21
⑥口③④ |①-②-|
口②⑦⑤ |③-④-|
口口口口 |⑤---|
口①口口 |⑥-⑦-|
22
口⑤口口 |①---|
口⑥口④ |②-③-|
③①①① |④-⑤-|
口口②⑦ |⑥-⑦-|
23
④③口口 |①-②-|
口口口口 |③-④-|
口口②口
口口①口

口⑦口口
⑤口口⑥
口口口口 |⑤---|
口口口口 |⑥-⑦-|
24
口口口口 |①-②-|
口②口口 |③-④-|
①①①口
口③④口

口⑦⑤口
口⑧⑥口
口口口口 |⑤-⑥-|
口口口口 |⑦-⑧-|
25
口④口④ |①--②|
口口口口 |--③-|
①③口③ |④---|
口②口② |----|
26
②口口④ |①-②-|
口口③口 |③-④-|
③口口口
③口口①

口⑥口口
⑧口⑨⑤
口⑨口⑦ |⑤-⑥⑦|
口⑨口⑦ |⑧-⑨-|
27
⑤③④② |①-②-|
口①口口 |③-④-|
口⑦⑥口 |⑤--⑥|
口⑦⑥口 |--⑦-|
28
口②口口 |①-②-|
④口口③ |③-④-|
③口口口
③口口①

⑧口口⑨
口⑥⑤口
口⑨口⑦ |⑤-⑥⑦|
口⑨口⑦ |⑧-⑨-|
29
口①②口 |①-②-|
③⑤口④ |③-④-|
⑥口③⑦ |⑤--⑥|
⑥口③⑦ |--⑦-|
30
②口口④ |①-②-|
口口③口 |③-④-|
口③口口
口③①口

口⑥口口
⑧口⑨⑤
口⑨口⑦ |⑤-⑥⑦|
口⑨口⑦ |⑧-⑨-|
31
⑤③④② |①-②-|
口①口口 |③-④-|
口⑦⑥口 |⑤--⑥|
口⑦⑥口 |--⑦-|
32
口②口口 |①-②-|
④口口③ |③-④-|
③口口口
③口口①

⑧口口⑨
口⑥⑤口
口⑨口⑦ |⑤-⑥⑦|
口⑨口⑦ |⑧-⑨-|
33
口①②口 |①-②-|
③⑤口④ |③-④-|
⑥口③⑦ |⑤--⑥|
⑥口③⑦ |--⑦-|
34
②口口④ |①-②-|
口口③口 |③-④-|
口③口口
口③①口

口⑥口口
⑧口⑨⑤
口⑨口⑦ |⑤-⑥⑦|
口⑨口⑦ |⑧-⑨-|
35
⑤③④② |①-②-|
口①口口 |③-④-|
口⑦⑥口 |⑤--⑥|
口⑦⑥口 |--⑦-|
36
口②口口 |①-②-|
④口口③ |③-④-|
③口口口
③口口①

⑧口口⑨
口⑥⑤口
口⑨口⑦ |⑤-⑥⑦|
口⑨口⑦ |⑧-⑨-|
37
口①②口 |①-②-|
③⑤口④ |③-④-|
⑥口③⑦ |⑤--⑥|
⑥口③⑦ |--⑦-|
38
②口口④ |①-②-|
口口③口 |③-④-|
口③口口
口③①口

口⑥口口
⑧口⑨⑤
口⑨口⑦ |⑤-⑥⑦|
口⑨口⑦ |⑧-⑨-|
39
⑤③④② |①-②-|
⑦①⑦口 |③-④-|
口口⑥口 |⑤--⑥|
口口⑥口 |--⑦-|
40
④②⑤① |①-②-|
口⑧口⑦ |③-④-|
⑥③⑥③ |⑤-⑥-|
口口口口 |⑦-⑧-|
41
⑤⑤⑦④ |①-②-|
②口③口 |③-④-|
口口口口 |⑤---|
口①⑥① |⑥-⑦-|
42
口②口口 |①---|
④④④口 |②-③-|
口①①① |④---|
口③口口 |----|
43
②口口口 |①-②-|
④口⑤① |③-④-|
②⑤⑥③ |⑤---|
⑤⑥口① |⑥---|
44
③口口③ |①---|
口口④口 |②---|
②口口② |③---|
口口①口 |④---|
45
⑤⑥⑤口 |①-②-|
口口口④ |③-④-|
①③③口 |⑤---|
口⑦②口 |⑥-⑦-|
46
口口③口 |①---|
口④④④ |②-③-|
①①①口 |④---|
口口②口 |----|
47
①口⑥⑤ |①-②-|
③⑥⑤② |③-④-|
①⑤口④ |⑤---|
口口口② |⑥---|
48
口①口口 |①---|
②口口② |②---|
口口④口 |③---|
③口口③ |④---|
49
口口②口 |①-②-|
①③③口 |③-④-|
口口口④
口口口口

口口⑦口
口口口口
口口口口 |⑤---|
⑤⑤⑥口 |⑥-⑦-|
50
口②口口 |①---|
④④④口 |②-③-|
口①①① |④---|
口③口口 |----|
51
②口口口 |①-②-|
④口⑤① |③-④-|
②⑤⑥③ |⑤---|
⑤⑥口① |⑥---|
52
③口口③ |①---|
口口④口 |②---|
②口口② |③---|
口口①口 |④---|
53
⑤⑥⑤口 |①-②-|
口口口④ |③-④-|
①③③口 |⑤---|
口⑦②口 |⑥-⑦-|
54
口口③口 |①---|
口④④④ |②-③-|
①①①口 |④---|
口口②口 |----|
55
①口⑥⑤ |①-②-|
③⑥⑤② |③-④-|
①⑤口④ |⑤---|
口口口② |⑥---|
56
口①口口 |①---|
②口口② |②---|
口口④口 |③---|
③口口③ |④---|
57
口口②口 |①-②-|
①③③口 |③-④-|
口口口④ |⑤---|
⑤口⑤口 |----|


不確定度: 0

最終更新:2013年05月27日 20:31