ET-KING

ADVANCED

Level: 8
BPM: 110
Notes: 647

1
口口口口 |----|
口口口口 |----|
口口口口 |----|
口口口口 |----|
2
②口口口 |①-②-|
口口口③ |③④-⑤|
⑤口口④
①口口①

⑨口口⑩
口⑦⑧口
口⑪口⑫ |⑥⑦⑧⑨|
口口⑥口 |⑩⑪-⑫|
3
口口④⑧ |①-②-|
⑦口③⑥ |③④-⑤|
②⑤口口 |⑥⑦⑧-|
口⑨⑨① |⑨---|
4
②①⑩⑪ |①②③④|
③⑬口⑫ |⑤⑥⑦⑧|
⑦⑭⑮④ |⑨⑩⑪⑫|
⑧⑨⑥⑤ |⑬⑭⑮-|
5
口⑫⑫口 |①②③④|
①⑦口⑥ |⑤⑥-⑦|
⑤⑪⑧② |⑧⑨⑩⑪|
③⑨⑩④ |⑫---|
6
口⑨⑩① |①--②|
⑦②口⑧ |③-④⑤|
⑪③口④ |⑥⑦⑧⑨|
⑤口⑥口 |⑩-⑪-|
7
口⑤口④ |①--②|
口口口口 |③-④⑤|
口③口①
口②口口

口口口口
口⑩⑥口
⑦口口⑧ |⑥⑦⑧⑨|
口口⑨口 |⑩---|
8
②①⑩⑪ |①②③④|
③⑬口⑫ |⑤⑥⑦⑧|
⑦⑭⑮④ |⑨⑩⑪⑫|
⑧⑨⑥⑤ |⑬⑭⑮-|
9
口⑫⑫口 |①②③④|
①⑦口⑥ |⑤⑥-⑦|
⑤⑪⑧② |⑧⑨⑩⑪|
③⑨⑩④ |⑫---|
10
②口口口 |①-②-|
口口口③ |③④-⑤|
⑤口口④
①口口①

⑨口口⑩
口⑦⑧口
口⑪口⑫ |⑥⑦⑧⑨|
口口⑥口 |⑩⑪-⑫|
11
口口④⑧ |①-②-|
⑦口③⑥ |③④-⑤|
②⑤口口 |⑥⑦⑧-|
口⑨⑨① |⑨---|
12
②①⑩⑪ |①②③④|
③⑬口⑫ |⑤⑥⑦⑧|
⑦⑭⑮④ |⑨⑩⑪⑫|
⑧⑨⑥⑤ |⑬⑭⑮-|
13
口⑫⑫口 |①②③④|
①⑦口⑥ |⑤⑥-⑦|
⑤⑪⑧② |⑧⑨⑩⑪|
③⑨⑩④ |⑫---|
14
口⑨⑩① |①--②|
⑦②口⑧ |③-④⑤|
⑪③口④ |⑥⑦⑧⑨|
⑤口⑥口 |⑩-⑪-|
15
口⑤口④ |①--②|
口口口口 |③-④⑤|
口③口①
口②口口

口口口口
口⑩⑥口
⑦口口⑧ |⑥⑦⑧⑨|
口口⑨口 |⑩---|
16
②①⑩⑪ |①②③④|
③⑬口⑫ |⑤⑥⑦⑧|
⑦⑭⑮④ |⑨⑩⑪⑫|
⑧⑨⑥⑤ |⑬⑭⑮-|
17
口⑫⑫口 |①②③④|
①⑦口⑥ |⑤⑥-⑦|
⑤⑪⑧② |⑧⑨⑩⑪|
③⑨⑩④ |⑫---|
18
口口口② |①-②③|
③①①口 |④⑤⑥⑦|
口⑦口④
⑤口⑥口

⑧口口⑪
⑫口口⑨
⑩口口⑬ |-⑧⑨⑩|
口口口口 |⑪⑫⑬-|
19
口②口口 |①-②③|
口口③口 |④⑤⑥⑦|
④①①⑦
⑥口口⑤

⑪⑬⑩⑧
口⑨⑫⑭
口口口口 |⑧⑨⑩⑪|
口口口口 |⑫⑬⑭-|
20
口口口口 |①-②③|
口口⑦口 |④⑤⑥⑦|
④⑥口③
②①①⑤

⑭口⑧口
口⑨口⑬
⑫口⑩口 |-⑧⑨⑩|
口⑪口口 |⑪⑫⑬⑭|
21
口口口① |-①②③|
②口口⑦ |④⑤⑥⑦|
⑥口口③
④口口⑤

⑫⑧口⑫
口口⑨口
口⑩口口 |⑧⑨⑩⑪|
口口⑪口 |⑫---|
22
口⑥口口 |①--②|
口④③口 |③④⑤⑥|
②口口⑤
①口口①

口口⑨⑦
⑧口口⑬
⑫⑩口口 |⑦⑧⑨⑩|
口口口⑪ |-⑪⑫⑬|
23
⑤口口④ |-①②③|
口①⑥口 |④⑤⑥⑦|
口⑦②口
口③口口

口口⑧口
⑨口口⑩
⑪口⑭口 |⑧⑨⑩⑪|
口⑬口⑫ |⑫-⑬⑭|
24
口①口② |①--②|
口③口口 |③④⑤⑥|
口口口④
⑤口⑥口

⑬⑦口⑫
口⑪口⑧
⑨口⑩口 |-⑦⑧⑨|
口口口口 |⑩⑪⑫⑬|
25
口口口口 |①--②|
口④③口 |③④⑤⑥|
口②⑤①
⑥口口口

⑦口口口
口⑪口⑧
⑨口口口 |-⑦⑧⑨|
口口⑫⑩ |⑩⑪-⑫|
26
⑪⑤⑫① |-①②③|
②⑬⑥⑩ |④-⑤⑥|
⑨⑦口③ |⑦⑧⑨⑩|
④口⑧口 |⑪-⑫⑬|
27
口②口口 |①-②-|
口口口口 |③④⑤⑥|
口③①⑥
⑤口④口

口⑨口⑦
⑧口⑩口
口⑪口口 |⑦⑧⑨⑩|
口口口口 |⑪---|
28
口②⑩口 |①--②|
⑦⑨④⑪ |③-④⑤|
口③⑧口 |⑥⑦⑧⑨|
⑤①①⑥ |⑩-⑪-|
29
口口口口 |①--②|
口口口口 |③④⑤⑥|
口③④⑥
②①①⑤

⑩口口⑦
⑪⑨⑧口
口口⑫口 |⑦⑧⑨⑩|
口⑬口⑭ |⑪⑫⑬⑭|
30
④口口② |①--②|
口口③⑤ |③-④⑤|
①口口口
口口口口

口口口口
⑪⑧口⑫
⑥口⑨口 |⑥⑦⑧⑨|
口⑩口⑦ |⑩-⑪⑫|
31
口①口口 |①-②③|
⑤口④⑥ |④-⑤⑥|
口③口口
口口②口

口口口口
口口口口
⑦⑪⑪⑧ |⑦⑧⑨⑩|
⑨口口⑩ |⑪---|
32
④⑥③⑤ |①②③④|
口②⑦① |⑤⑥⑦⑧|
口⑧口口
口口口口

口口口口
⑩⑯口⑬
⑭口口⑨ |⑨⑩⑪⑫|
口⑫⑪⑮ |⑬⑭⑮⑯|
33
口口①口 |①-②-|
②口③口 |③④⑤⑥|
口④口口
⑥口⑤口

⑫口⑨⑬
口⑧⑭口
口口⑩⑦ |⑦⑧⑨⑩|
口⑪口口 |⑪⑫⑬⑭|
34
口③③口 |①-②-|
②口口② |③-④-|
①口口①
④口口④

口⑩口口
口⑤⑤⑨
⑧⑥⑥口 |⑤-⑥-|
口⑦⑦口 |⑦⑧⑨⑩|
35
口口④口 |①-②③|
⑦③口⑥ |④⑤⑥⑦|
⑤口②口
①口口①

口口⑫口
口⑪口口
口口⑩⑧ |⑧⑨⑩⑪|
口⑨口口 |⑫---|
36
口口⑧口 |①②③④|
⑦口口口 |⑤⑥⑦⑧|
①③⑥口
⑤口④②

⑫口口⑫
口⑩⑩口
⑨口口⑨ |⑨-⑩-|
口⑪⑪口 |⑪-⑫-|
37
⑪⑥⑦⑪ |①②③④|
口⑧⑤⑨ |⑤⑥⑦⑧|
①口口④ |⑨-⑩-|
③⑩⑩② |⑪---|
38
⑧口口口 |①②③④|
⑦⑥口口 |⑤⑥⑦⑧|
口⑤④②
口口③①

口口口⑨
口口⑫口
口⑪口口 |⑨-⑩-|
⑩口口口 |⑪-⑫-|
39
口口⑥⑦ |①②③④|
口④⑧⑤ |⑤⑥⑦⑧|
②口③口
口①口口

⑩口口⑫
口口口口
口⑨⑪口 |⑨-⑩-|
口口口口 |⑪-⑫-|
40
口①口口 |①②③④|
②⑤口⑧ |⑤⑥⑦⑧|
⑥口⑦④
口口③口

⑯⑬口⑫
口口⑪口
口⑨⑮口 |⑨⑩⑪⑫|
⑩口口⑭ |⑬⑭⑮⑯|
41
口口⑦口 |①②③④|
④①③⑥ |⑤⑥⑦⑧|
⑧⑤口②
口口口口

口口口⑫
口口⑪口
⑭口口口 |⑨-⑩⑪|
⑩⑨口⑬ |⑫-⑬⑭|
42
口③③口 |①--②|
口口口① |③-④⑤|
口②②⑤
④口口口

口⑧⑧口
⑥口口口
⑩⑦⑦口 |⑥--⑦|
口口口⑨ |⑧-⑨⑩|
43
口③③口 |①--②|
口口口① |③-④-|
口②②口
④口口口

口⑦⑦口
口口口⑤
口⑥⑥口 |⑤--⑥|
口口口口 |⑦---|
44
①⑤口④ |①②③④|
口②③⑥ |⑤⑥⑦⑧|
口⑦口口
口口口⑧

⑭口⑨口
⑩口⑬口
⑯口⑪⑮ |⑨⑩⑪⑫|
⑫口口口 |⑬⑭⑮⑯|
45
⑬⑨口⑧ |①②③④|
⑦④⑫① |⑤⑥⑦⑧|
口⑪③⑩ |⑨⑩⑪⑫|
⑤②口⑥ |⑬---|
46
⑤口口口 |①②③④|
口⑦⑥④ |⑤⑥⑦⑧|
口③②⑧
①口口口

口⑫口口
⑪口口⑬
口口⑩口 |-⑨⑩⑪|
口⑨口口 |⑫-⑬-|
47
⑦⑤⑧⑥ |①②③④|
口口口口 |⑤⑥⑦⑧|
口①④口
③口口②

口口口口
口⑨口⑩
⑪口⑫口 |⑨⑩⑪⑫|
口⑬口口 |⑬---|
48
④口口⑤ |①-②-|
⑥口口③ |③-④-|
②口口⑦ |⑤-⑥-|
⑧口口① |⑦-⑧-|
49
④口⑤⑤ |①-②-|
⑥口③③ |③-④-|
②口⑦⑦ |⑤-⑥-|
⑧口口① |⑦-⑧-|
50
④口⑤⑤ |①-②-|
⑥口③③ |③-④-|
②口⑦⑦ |⑤-⑥-|
⑧口①① |⑦-⑧-|
51
②②口口 |①-②-|
口口③③ |--③-|
④④口口 |--④-|
口口①① |----|


不确定度: 0

最終更新:2012年11月14日 15:22