ET-KING

EXTREME

Level: 9
BPM: 110
Notes: 771

1
口口口口 |----|
口口口口 |----|
口口口口 |----|
口口口口 |----|
2
口口口口 |①-②-|
⑤口④口 |③④-⑤|
②口口③
①①①①

⑫⑥口⑦
口口口⑪
口⑧口口 |⑥⑦⑧⑨|
⑩口口⑨ |⑩⑪-⑫|
3
口口口② |①-②-|
口①口⑤ |③④-⑤|
口③口口
④口口口

口⑥口⑨
口口⑨口
⑧口口口 |⑥⑦⑧-|
口口⑦口 |⑨---|
4
③④⑤⑥ |①②③④|
②①⑧⑦ |⑤⑥⑦⑧|
⑦⑧①②
⑥⑤④③

⑪⑫⑬⑭
⑩⑨口⑮
⑮口⑨⑩ |⑨⑩⑪⑫|
⑭⑬⑫⑪ |⑬⑭⑮-|
5
⑦口⑤⑥ |①②③④|
④③口口 |⑤⑥-⑦|
口口①②
口口口口

口口口口
口⑩⑩⑧
⑨⑪⑪口 |⑧⑨⑩⑪|
口⑫⑫口 |⑫---|
6
④①①⑤ |①--②|
口⑥⑦② |③-④⑤|
⑧⑪③⑨ |⑥⑦⑧⑨|
口⑩⑩口 |⑩-⑪-|
7
②⑨①⑩ |①--②|
⑦③⑩口 |③-④⑤|
口口⑥口 |⑥⑦⑧⑨|
⑤口⑧④ |⑩---|
8
③④⑤⑥ |①②③④|
②①⑧⑦ |⑤⑥⑦⑧|
⑦⑧①②
⑥⑤④③

⑪⑫⑬⑭
⑩⑨口⑮
⑮口⑨⑩ |⑨⑩⑪⑫|
⑭⑬⑫⑪ |⑬⑭⑮-|
9
⑦口⑤⑥ |①②③④|
④③口口 |⑤⑥-⑦|
口口①②
口口口口

口口口口
口⑩⑩⑧
⑨⑪⑪口 |⑧⑨⑩⑪|
口⑫⑫口 |⑫---|
10
口口口口 |①-②-|
⑤口④口 |③④-⑤|
②口口③
①口口①

⑫⑥口⑦
口口口⑪
口⑧口口 |⑥⑦⑧⑨|
⑩口口⑨ |⑩⑪-⑫|
11
口口口② |①-②-|
口①口⑤ |③④-⑤|
口③口口
④口口口

口⑥口⑨
口口⑨口
⑧口口口 |⑥⑦⑧-|
口口⑦口 |⑨---|
12
③④⑤⑥ |①②③④|
②①⑧⑦ |⑤⑥⑦⑧|
⑦⑧①②
⑥⑤④③

⑪⑫⑬⑭
⑩⑨口⑮
⑮口⑨⑩ |⑨⑩⑪⑫|
⑭⑬⑫⑪ |⑬⑭⑮-|
13
⑦口⑤⑥ |①②③④|
④③口口 |⑤⑥-⑦|
口①①②
口口口口

口口口口
口⑩⑩⑧
⑨⑪⑪口 |⑧⑨⑩⑪|
口⑫⑫口 |⑫---|
14
④①①⑤ |①--②|
口⑥⑦② |③-④⑤|
⑧⑪③⑨ |⑥⑦⑧⑨|
口⑩⑩口 |⑩-⑪-|
15
②⑨①⑩ |①--②|
⑦③⑩口 |③-④⑤|
口口⑥口 |⑥⑦⑧⑨|
⑤口⑧④ |⑩---|
16
③④⑤⑥ |①②③④|
②①⑧⑦ |⑤⑥⑦⑧|
⑦⑧①②
⑥⑤④③

⑪⑫⑬⑭
⑩⑨口⑮
⑮口⑨⑩ |⑨⑩⑪⑫|
⑭⑬⑫⑪ |⑬⑭⑮-|
17
⑦口⑤⑥ |①②③④|
④③口口 |⑤⑥-⑦|
口口①②
口口口口

口口口口
口⑩口⑧
⑨口⑪口 |⑧⑨⑩⑪|
⑫⑫口口 |⑫---|
18
①口口② |①-②③|
①⑦口口 |④⑤⑥⑦|
口③口④
⑤口⑥口

⑪口口⑫
口口⑩口
⑨口口口 |-⑧⑨⑩|
口⑬⑬⑧ |⑪⑫⑬-|
19
⑦①口口 |①-②③|
③①④⑥ |④⑤⑥⑦|
口⑤口②
口口口口

口口口⑪
口⑩口口
⑧⑬⑨⑫ |⑧⑨⑩⑪|
口口⑭口 |⑫⑬⑭-|
20
口④①⑤ |①-②③|
口口①③ |④⑤⑥⑦|
②口口口
⑥口⑦⑦

⑧口口⑬
⑭口⑨口
⑩口口⑪ |-⑧⑨⑩|
口⑫口口 |⑪⑫⑬⑭|
21
口口口⑦ |-①②③|
口⑥口③ |④⑤⑥⑦|
口②口口
④口⑤①

⑧口口口
口口口口
口⑩⑨口 |⑧⑨⑩⑪|
⑫⑫口⑪ |⑫---|
22
②口口① |①--②|
⑥④③① |③④⑤⑥|
口口⑤口
口口口口

口口口⑨
口口⑬口
⑩⑫口⑦ |⑦⑧⑨⑩|
口⑧⑪口 |-⑪⑫⑬|
23
①口口② |-①②③|
口⑤口口 |④⑤⑥⑦|
③⑦⑥④
口口口口

口⑫⑫口
口口⑧口
口⑭口⑬ |⑧⑨⑩⑪|
⑨⑪口⑩ |⑫-⑬⑭|
24
⑥口口① |①--②|
口④口⑤ |③④⑤⑥|
口口口口
②口③口

口口⑦口
⑧⑬口口
⑫口⑨口 |-⑦⑧⑨|
⑩口口⑪ |⑩⑪⑫⑬|
25
口④口② |①--②|
⑤口③① |③④⑤⑥|
口口口①
⑥⑥口口

⑦口口口
口⑫⑪⑧
⑨⑪⑫口 |-⑦⑧⑨|
口口口⑩ |⑩⑪-⑫|
26
口⑤口④ |-①②③|
③口⑥口 |④-⑤⑥|
口口口②
①口口口

口口口口
⑪⑪口口
口⑦口⑩ |⑦⑧⑨⑩|
⑨⑬⑧⑫ |⑪-⑫⑬|
27
②②口③ |①-②-|
口⑥口口 |③④⑤⑥|
④口①⑤
口口口口

口⑪⑪口
⑩口⑨口
口口口口 |⑦⑧⑨⑩|
⑧口⑦口 |⑪---|
28
①口⑩① |①--②|
⑨②④⑩ |③-④⑤|
③⑧口⑤ |⑥⑦⑧⑨|
⑦⑪⑥口 |⑩-⑪-|
29
①口口① |①--②|
口②④口 |③④⑤⑥|
③口口⑤
口口⑥口

⑬⑩口⑪
⑨⑭口口
口⑧⑫口 |⑦⑧⑨⑩|
⑦口口⑫ |⑪⑫⑬⑭|
30
④口②口 |①--②|
口⑤口③ |③-④⑤|
①口口口
口①口口

⑪口⑩口
口⑫口⑩
⑥口⑨口 |⑥⑦⑧⑨|
口⑦口⑧ |⑩-⑪⑫|
31
口⑤口② |①-②③|
⑥口③口 |④-⑤⑥|
④口口①
口④①口

口口⑨口
口口口⑩
⑪⑦口口 |⑦⑧⑨⑩|
⑧⑪口口 |⑪---|
32
口②口④ |①②③④|
①口③口 |⑤⑥⑦⑧|
口⑦口⑤
⑧口⑥口

口⑩⑭⑫
⑨口⑪⑮
⑬口⑯口 |⑨⑩⑪⑫|
口⑬口口 |⑬⑭⑮⑯|
33
⑤口口口 |①-②-|
①⑥②口 |③④⑤⑥|
口④口口
①口③口

口口⑨口
口口口⑩
⑦口⑪⑭ |⑦⑧⑨⑩|
⑬⑧口⑫ |⑪⑫⑬⑭|
34
①口口① |①-②-|
口②②口 |③-④-|
口③③口
④口口④

口⑤⑤⑧
⑦⑩⑨⑦
⑦口口⑦ |⑤-⑥-|
口⑥⑥口 |⑦⑧⑨⑩|
35
①⑫⑤⑫ |①-②③|
⑥口⑪④ |④⑤⑥⑦|
口⑦③⑩ |⑧⑨⑩⑪|
⑧②⑨② |⑫---|
36
①口口口 |①②③④|
⑧②口⑤ |⑤⑥⑦⑧|
③口④口
⑦口口⑥

⑬⑨⑨⑬
口⑫⑫口
口⑪⑪口 |⑨-⑩-|
口⑩⑩口 |⑪⑫⑬-|
37
口口口口 |①②③④|
③口口⑥ |⑤⑥⑦⑧|
②口⑧⑤
①⑦口④

⑩⑪⑪⑩
⑬⑨口⑬
口口口口 |⑨-⑩⑪|
⑫口口⑫ |⑫-⑬-|
38
⑤⑥④⑤ |①②③④|
⑦③口口 |⑤⑥⑦⑧|
口⑧②口
口①口口

⑫口口⑫
口⑪⑪口
⑩口口⑩ |⑨-⑩-|
⑨口口⑨ |⑪-⑫-|
39
口⑥①口 |①②③④|
⑦口口② |⑤⑥⑦⑧|
⑤⑧③⑤
口口口④

⑪⑫⑫⑪
口⑩⑩口
口口口口 |⑨-⑩-|
口⑨⑨口 |⑪-⑫-|
40
口口口⑦ |①②③④|
⑤口⑥⑧ |⑤⑥⑦⑧|
口④口①
③口②口

⑭⑮口口
⑯⑬口口
⑫口⑨口 |⑨⑩⑪⑫|
口⑪⑩口 |⑬⑭⑮⑯|
41
口口④⑤ |①②③④|
口口⑥③ |⑤⑥⑦⑧|
口①②⑦
口口⑧口

⑫口口口
口⑪口口
⑩⑬⑬⑮ |⑨⑩⑪⑫|
口⑨口⑭ |⑬-⑭⑮|
42
⑨口口口 |①--②|
⑩口⑥① |③-④⑤|
③⑧⑤口 |⑥--⑦|
②⑦④口 |⑧-⑨⑩|
43
口④⑥② |①--②|
口口口③ |③-④-|
①⑤口口 |⑤--⑥|
⑦⑦口口 |⑦---|
44
口⑤④口 |①②③④|
⑥口口③ |⑤⑥⑦⑧|
口⑦②口
⑧口口①

⑭口口⑮
口⑪⑫口
⑩口口⑯ |⑨⑩⑪⑫|
口⑨⑬⑬ |⑬⑭⑮⑯|
45
口③②口 |①②③④|
④口口① |⑤⑥⑦⑧|
⑧⑤①口
⑥⑦口口

口⑬⑬口
口⑨⑩口
口口口⑪ |⑨⑩⑪⑫|
口口⑫口 |⑬---|
46
①⑧⑧⑤ |①②③④|
②口口⑥ |⑤⑥⑦⑧|
③口口⑦
口④④口

⑨口口⑫
口⑩口口
口⑬⑪口 |-⑨⑩⑪|
⑬口口口 |⑫-⑬-|
47
口⑦①口 |①②③④|
⑧③口② |⑤⑥⑦⑧|
⑤口④口
口⑥口口

口口口口
口口⑨口
⑬⑩口⑪ |⑨⑩⑪⑫|
⑬口⑫口 |⑬---|
48
②②②② |①-②-|
口①①口 |③-④-|
口口口口
③③口④

口口口口
⑦⑦口⑧
⑥口⑤⑤ |⑤-⑥-|
口口口口 |⑦-⑧-|
49
②口①① |①-②-|
⑦⑦口⑧ |③-④-|
⑥口⑤⑤ |⑤-⑥-|
③③口④ |⑦-⑧-|
50
②口①① |①-②-|
⑧口⑦⑦ |③-④-|
⑤⑤口⑥ |⑤-⑥-|
④口③③ |⑦-⑧-|
51
①①①① |①-②-|
口④④口 |--③-|
口③③口 |--④-|
口②②口 |----|


不确定度: 0

最終更新:2012年11月14日 15:22