マスターピース
mihimaru GT

ADVANCED

Level: 7
BPM: 152
Notes: 418

1
口口口口 |----|
口口口口 |----|
口口口口 |----|
口口口口 |----|
2
⑤口③⑤ |①-②-|
⑦⑥④⑧ |③-④-|
口②口口 |⑤-⑥-|
口①口口 |--⑦⑧|
3
口①③口 |①-②-|
口④②口 |--③-|
口口⑤口 |--④-|
口口口口 |--⑤-|
4
口②②口 |①---|
⑥④⑤③ |②---|
①口口① |③-④-|
口口口口 |⑤-⑥-|
5
口口口口 |①---|
口口口口 |②---|
口②②口
口①①口

口③口口
口口④口
口口口口 |③-④-|
口⑤⑤口 |⑤---|
6
③口⑤⑤ |①---|
口④口口 |②---|
①口口② |③-④-|
①口口② |⑤---|
7
口③③口 |①---|
口口④口 |②---|
①⑤口② |③-④-|
①⑤口② |⑤---|
8
口②②口 |①---|
⑥④⑤③ |②---|
①口口① |③-④-|
口口口口 |⑤-⑥-|
9
口口口口 |①---|
口口口口 |②---|
口②②口
口①①口

口③口口
口口④口
口口口口 |③-④-|
口⑤⑤口 |⑤---|
10
③口⑤⑤ |①---|
口④口口 |②---|
①口口② |③-④-|
①口口② |⑤---|
11
口③③口 |①---|
口口④口 |②---|
①⑤口② |③-④-|
①⑤口② |⑤---|
12
口口口口 |①---|
①口口① |②---|
③口④② |③---|
口口口口 |④---|
13
口口口口 |①---|
口口口口 |②---|
口①口口 |③---|
③④②③ |--④-|
14
口口④④ |①-②-|
③③②口 |--③-|
口⑤①口 |--④-|
口口口口 |--⑤-|
15
口口口口 |--①-|
④口口④ |--②-|
口口①口 |----|
口②②③ |③-④-|
16
口口口口 |----|
口④③口 |①---|
①⑤②口 |②-③-|
口口口口 |④-⑤-|
17
口口口口 |--①-|
口④④口 |----|
口口口口 |--②-|
③①①② |③-④-|
18
口④④⑥ |--①-|
口⑤口⑥ |②-③-|
②口①③ |④---|
口口口口 |⑤-⑥-|
19
①口口口 |--①-|
①口口口 |--②-|
④②②④ |--③-|
③口口③ |--④-|
20
口①①口 |----|
③口口② |①-②-|
⑤口⑥④ |③-④-|
口口口口 |⑤-⑥-|
21
口⑤④口 |--①-|
口③⑥口 |--②-|
口口口口 |③-④-|
口①①② |⑤-⑥-|
22
口④④口 |①---|
口口口口 |----|
口①①③ |②-③-|
口②口口 |--④-|
23
③口口③ |--①-|
口④口口 |--②-|
②①①② |--③-|
口口口口 |--④-|
24
口①①口 |①---|
③口口② |②-③-|
口口口④ |--④-|
口⑤⑤口 |--⑤-|
25
口④③口 |----|
口②⑤口 |--①-|
口口口口 |②-③-|
口口口① |④-⑤-|
26
口⑥⑥口 |①---|
⑤口口口 |--②-|
口①①④ |③-④-|
口③②口 |⑤-⑥-|
27
④⑤⑤④ |--①-|
口口口口 |②-③-|
③口①③ |--④-|
口②口口 |--⑤-|
28
口口口口 |①---|
口①②口 |②---|
③①②④ |③---|
③口口④ |④---|
29
①口口② |①---|
①③④② |②---|
口④③口 |③---|
口口口口 |④---|
30
口①②口 |①-②-|
⑦口口⑧ |③-④-|
③口口④ |⑤-⑥-|
⑤口口⑥ |⑦-⑧-|
31
口③③口 |①---|
口①①口 |----|
②①①② |--②-|
口口口口 |--③-|
32
口⑥⑥口 |--①-|
口⑦口① |②-③-|
口口⑤口 |④-⑤-|
②④口③ |⑥-⑦-|
33
口口口口 |----|
口②②口 |----|
口口口口 |--①-|
口①①口 |--②-|
34
口⑥⑥口 |--①-|
口口⑦口 |②-③-|
①⑤④② |④-⑤-|
口③口口 |⑥-⑦-|
35
①口口① |--①-|
②③④② |--②-|
口⑤⑤口 |--③-|
口口口口 |④-⑤-|
36
口④③口 |----|
口②⑤口 |①---|
口口口口 |②-③-|
口①①口 |④-⑤-|
37
②口口② |--①-|
口口口口 |--②-|
口①①口
口口口口

口口口口
③口口④
口⑤⑤口 |--③-|
口口口口 |④-⑤-|
38
⑤口口口 |----|
④口口口 |①---|
口口口③ |②-③-|
口①①② |④-⑤-|
39
口口口口 |①---|
口①①口 |--②-|
口口②口
口口口口

口口口口
口⑤⑤口
口③口口 |③---|
口口④口 |④-⑤-|
40
口口口⑥ |--①-|
⑤⑦⑦口 |②-③-|
①口口② |④-⑤-|
③口口④ |⑥-⑦-|
41
口②②口 |----|
口口口口 |----|
口口口口 |--①-|
口①①口 |--②-|
42
口口⑥口 |--①-|
①⑦⑦口 |②-③-|
③⑤口② |④-⑤-|
口口口④ |⑥-⑦-|
43
口口口口 |----|
②口口② |----|
口口口口 |--①-|
口①①口 |--②-|
44
口⑥⑥口 |--①-|
⑤口④⑤ |②-③-|
①③口口 |④-⑤-|
口口口② |--⑥-|
45
③口口④ |--①-|
口①口口 |②-③-|
⑤口②⑥ |④-⑤-|
口⑦口口 |⑥-⑦-|
46
口口⑥口 |①---|
③⑤④③ |②-③-|
口②口口 |--④-|
口口①口 |⑤-⑥-|
47
口⑤⑤口 |①---|
④口口④ |②-③-|
①②口① |--④-|
口③③口 |--⑤-|
48
口口口口 |----|
口口口口 |----|
口口口口 |----|
口口口口 |----|
49
口口口口 |----|
口口口口 |----|
①口口② |--①-|
口③口口 |②-③-|
50
口口⑥口 |①---|
③⑤④③ |②-③-|
口②口口 |--④-|
口口①口 |⑤-⑥-|
51
①口口① |①---|
④⑤⑤④ |②-③-|
口②口口 |--④-|
口③③口 |--⑤-|
52
口②②口 |①---|
⑥④⑤③ |②---|
①口口① |③-④-|
口口口口 |⑤-⑥-|
53
口口口口 |①---|
口口口口 |②---|
口②②口
口①①口

口③口口
口口④口
口口口口 |③-④-|
口⑤⑤口 |⑤---|
54
③口⑤⑤ |①---|
口④口口 |②---|
①口口② |③-④-|
①口口② |⑤---|
55
口③③口 |①---|
口口④口 |②---|
①⑤口② |③-④-|
①⑤口② |⑤---|
56
口②②口 |①---|
⑥④⑤③ |②---|
①口口① |③-④-|
口口口口 |⑤-⑥-|
57
口口口口 |①---|
口口口口 |②---|
口②②口
口①①口

口③口口
口口④口
口口口口 |③-④-|
口⑤⑤口 |⑤---|
58
③口⑤⑤ |①---|
口④口口 |②---|
①口口② |③-④-|
①口口② |⑤---|
59
口③③口 |①---|
口口④口 |②---|
①⑤口② |③-④-|
①⑤口② |⑤---|
60
口口口口 |①---|
①③③① |--②-|
②口口② |----|
口口口口 |③---|


不确定度: 0

最終更新:2012年11月14日 15:22