マスターピース
mihimaru GT

EXTREME

Level: 9
BPM: 152
Notes: 634

1
口口口口 |----|
口口口口 |----|
口口口口 |----|
口口口口 |----|
2
口③⑤口 |①-②-|
口④⑥口 |③-④-|
口口⑧⑦ |⑤-⑥-|
①口口② |--⑦⑧|
3
口③④口 |①-②-|
口④③口 |--③-|
口①⑤口 |--④-|
②口口口 |--⑤-|
4
⑦口口⑧ |①②③④|
⑤口口⑥ |⑤⑥⑦⑧|
③口口④
①口口②

口⑪口口
口口⑪口
口⑩口口 |⑨⑩⑪-|
⑬⑨⑫⑭ |⑫-⑬⑭|
5
⑨⑨⑪⑪ |①②③④|
①⑤⑥② |⑤⑥⑦⑧|
③⑦⑧④ |⑨-⑩-|
口口⑩口 |⑪---|
6
⑨⑦⑧⑪ |①②③④|
⑨⑤⑥⑪ |⑤⑥⑦⑧|
口③④口 |⑨-⑩-|
①口⑩② |⑪---|
7
④口⑪⑧ |①②③④|
⑨⑩⑪⑧ |⑤⑥⑦⑧|
③⑦口④ |-⑨⑩-|
①⑤⑥② |⑪---|
8
口口口口 |①②③④|
口口口口 |⑤⑥⑦⑧|
③⑦⑧④
①⑤⑥②

⑬⑪⑫口
⑭⑨⑩⑮
口口口口 |⑨⑩⑪⑫|
口口口⑮ |⑬⑭⑮-|
9
口⑦口⑧ |①②③④|
口⑤⑥口 |⑤⑥⑦⑧|
口③④⑧
口①②口

⑨口口口
⑪口口⑫
⑩⑬⑬口 |-⑨⑩⑪|
口口口⑫ |⑫-⑬-|
10
口③口⑥ |①②③④|
⑦⑤②口 |⑤⑥⑦⑧|
口口口⑧
①口④口

⑬口⑭口
口口口⑩
口⑪⑯口 |⑨⑩⑪⑫|
⑮⑨口⑫ |⑬⑭⑮⑯|
11
口①口⑥ |①②③④|
口⑦④口 |⑤⑥⑦⑧|
③口口口
口⑤②⑧

口⑬⑫口
口口口⑩
⑭⑨口⑭ |⑨⑩⑪⑫|
⑪口口口 |⑬-⑭-|
12
②口口② |①---|
③口口③ |②---|
④口口④ |③---|
口①①口 |④---|
13
口口口口 |①---|
口口口口 |②---|
口口口口
①②②①

③口口⑥
口口口口
⑨⑤④口 |③④⑤⑥|
⑦口口⑧ |⑦⑧⑨-|
14
③②①④ |①-②-|
⑤②①口 |--③-|
口⑤口④ |--④-|
口口口口 |--⑤-|
15
④④口口 |--①-|
口①②口 |--②-|
口口①② |----|
③③②口 |③-④-|
16
口口①③ |----|
口口①口 |①---|
口②口④ |②-③-|
口⑤⑤口 |④-⑤-|
17
口口口口 |--①-|
口口④口 |----|
①口口② |--②-|
①③④口 |③-④-|
18
口④④⑥ |--①-|
口口⑥口 |②-③-|
①口口口 |④---|
③口⑤② |⑤-⑥-|
19
①口口⑤ |--①-|
④①口口 |--②-|
口②②⑤ |--③-|
口③口口 |④-⑤-|
20
口口①口 |----|
⑥②⑥③ |①-②-|
⑤口④口 |③-④-|
口口口口 |⑤-⑥-|
21
⑤口口④ |--①-|
口⑤④口 |--②-|
⑥口口③ |③-④-|
①口①② |⑤-⑥-|
22
口口口口 |①---|
口口口口 |----|
口口口口
①①口口

口⑤⑤口
⑤口口⑤
口口口口 |②-③-|
口④③② |④-⑤-|
23
口口口口 |--①-|
口①②口 |--②-|
口①②口
口口口口

③口口③
③口口③
口④口口 |--③-|
口口口口 |--④-|
24
口①①口 |①---|
口口口口 |②-③-|
③口④② |--④-|
口⑤⑤口 |--⑤-|
25
④口口③ |----|
口④③口 |--①-|
⑤口口② |②-③-|
口口口① |④-⑤-|
26
⑥⑥⑥⑥ |①---|
口口④口 |--②-|
口⑤口口 |③-④-|
①①③② |⑤-⑥-|
27
口⑤⑤⑥ |--①-|
口①③② |②-③-|
口口③口 |--④-|
口④④口 |--⑤⑥|
28
口口口口 |①②③④|
①⑦④⑧ |⑤⑥⑦⑧|
口③口②
⑤口口⑥

⑩⑩⑪⑪
口口⑬口
⑫口口口 |⑨-⑩-|
口⑨⑨口 |⑪-⑫⑬|
29
⑥口口口 |①②③④|
口②口⑤ |⑤⑥⑦⑧|
口口⑦③
⑧④口①

口⑭⑨⑪
口口口口
⑫⑩口口 |⑨⑩⑪⑫|
口⑯⑬⑮ |⑬⑭⑮⑯|
30
①口口⑥ |①②③④|
③⑤②口 |⑤⑥⑦⑧|
口⑦④⑧
口口口口

⑫⑩⑩口
口口口⑭
⑨口⑬口 |⑨-⑩-|
⑨口⑪⑪ |⑪⑫⑬⑭|
31
口口口口 |①---|
①①口口 |----|
口口口口
口口口口

③口口②
⑤口口④
⑦口口⑥ |②③④⑤|
⑨口口⑧ |⑥⑦⑧⑨|
32
⑦⑥⑥⑦ |①-②-|
口⑤①口 |③-④-|
⑧②①⑧ |⑤-⑥-|
⑧④③⑧ |⑦-⑧-|
33
②②③③ |--①-|
口口口口 |----|
口①①口 |--②-|
口口口口 |--③-|
34
⑥口口⑥ |--①-|
⑦②⑤⑦ |②-③-|
④①①④ |④-⑤-|
口③③口 |⑥-⑦-|
35
口①①口 |--①-|
口口口口 |--②-|
④②②⑤ |--③-|
口口③⑤ |④-⑤-|
36
口③口④ |----|
①口②⑤ |①---|
口①⑤口 |②-③-|
口口口口 |④-⑤-|
37
口口口口 |--①-|
口②口口 |--②-|
口口口口
①②口①

口口③口
口口口④
⑤口口口 |--③-|
⑤口口口 |④-⑤-|
38
①口口口 |----|
②口口⑤ |①---|
口②⑤① |②-③-|
口③④口 |④-⑤-|
39
⑨⑬⑧⑭ |①②③④|
⑦⑪⑥⑫ |⑤-⑥⑦|
③⑤⑩④ |⑧⑨⑩-|
①口口② |⑪⑫⑬⑭|
40
⑦⑧⑧⑦ |①-②-|
⑧⑥口⑧ |③-④-|
④①口⑤ |⑤-⑥-|
③口②④ |⑦-⑧-|
41
③③口口 |--①-|
口口口口 |----|
口口口② |--②-|
口①①② |--③-|
42
口口⑥口 |--①-|
①⑦⑦⑤ |②-③-|
口②④口 |④-⑤-|
③口口口 |⑥-⑦-|
43
口口口口 |----|
口③③口 |--①-|
②口口② |--②-|
口①①口 |--③-|
44
②⑥⑥③ |--①-|
口口口口 |②-③-|
④①①④ |④-⑤-|
口⑤⑤口 |--⑥-|
45
口口口口 |--①-|
口口口口 |②-③-|
②口口口
①口③①

口口口口
口④口口
口口口⑤ |④-⑤-|
⑦⑥口口 |⑥-⑦-|
46
⑤口④⑥ |①---|
③口④③ |②-③-|
②口①口 |--④-|
口口口① |⑤-⑥-|
47
口①口口 |①---|
④①口④ |②-③-|
④⑤⑤④ |--④-|
③②②③ |--⑤-|
48
①口③① |①-②-|
⑦②口口 |③---|
⑦口口⑥ |④-⑤-|
口⑤④⑥ |⑥-⑦-|
49
③口口口 |--①-|
口②口② |②---|
口口①口 |--③-|
口⑤④口 |④-⑤-|
50
口口口口 |①---|
③口口③ |②-③-|
口①①口
②口口②

口⑥⑥口
口口口口
④⑤⑤④ |--④-|
口口口口 |⑤-⑥-|
51
①口口① |①---|
口③④② |②-③-|
③⑤④口 |--④-|
口口口口 |--⑤-|
52
⑦口口⑧ |①②③④|
⑤口口⑥ |⑤⑥⑦⑧|
③口口④
①口口②

口⑪口口
口口⑪口
口⑩口口 |⑨⑩⑪-|
⑬⑨⑫⑭ |⑫-⑬⑭|
53
⑨⑨⑪⑪ |①②③④|
①⑤⑥② |⑤⑥⑦⑧|
③⑦⑧④ |⑨-⑩-|
口口⑩口 |⑪---|
54
⑨⑦⑧⑪ |①②③④|
⑨⑤⑥⑪ |⑤⑥⑦⑧|
口③④口 |⑨-⑩-|
①口⑩② |⑪---|
55
④口⑪⑧ |①②③④|
⑨⑩⑪⑧ |⑤⑥⑦⑧|
③⑦口④ |-⑨⑩-|
①⑤⑥② |⑪---|
56
口口口口 |①②③④|
口口口口 |⑤⑥⑦⑧|
③⑦⑧④
①⑤⑥②

⑬⑪⑫口
⑭⑨⑩⑮
口口口口 |⑨⑩⑪⑫|
口口口⑮ |⑬⑭⑮-|
57
口⑦口⑧ |①②③④|
口⑤⑥口 |⑤⑥⑦⑧|
口③④⑧
口①②口

⑨口口口
⑪口口⑫
⑩⑬⑬口 |-⑨⑩⑪|
口口口⑫ |⑫-⑬-|
58
口③口⑥ |①②③④|
⑦⑤②口 |⑤⑥⑦⑧|
口口口⑧
①口④口

⑬口⑭口
口口口⑩
口⑪⑯口 |⑨⑩⑪⑫|
⑮⑨口⑫ |⑬⑭⑮⑯|
59
口①口⑥ |①②③④|
口⑦④口 |⑤⑥⑦⑧|
③口口口
口⑤②⑧

口⑬⑫口
口口口⑩
⑭⑨口⑭ |⑨⑩⑪⑫|
⑪口口口 |⑬-⑭-|
60
①口口① |①---|
口②②口 |--②-|
口口口口 |----|
口③③口 |③---|


不确定度: 0

最終更新:2012年11月14日 15:22