僕らの永遠~何度生まれ変わっても、手を繋ぎたいだけの愛だから~
WEAVER

ADVANCED

Level: 5
BPM: 128
Notes: 342

1
口口口口 |----|
口口口口 |----|
口口口口 |----|
口口口口 |----|
2
口③口口 |①-②-|
口口口口 |③-④-|
口②口口
①①④④

⑥⑥口口
口口口口
口口口⑤ |--⑤-|
口口口口 |--⑥-|
3
口口口口 |----|
口口③口 |--①-|
口口④口 |②-③-|
①②口口 |--④-|
4
⑤⑥⑥③ |①-②-|
④口口口 |③-④-|
口口口② |--⑤-|
口口①① |--⑥-|
5
口口口口 |--①-|
口②③口 |--②③|
口④①口 |④-⑤-|
口口⑥⑤ |⑥---|
6
口③口口 |①-②-|
口口口口 |③-④-|
口②口口
①①④④

⑥⑥口口
口口口口
口口口⑤ |--⑤-|
口口口口 |--⑥-|
7
口口口口 |----|
口口③口 |--①-|
口口④口 |②-③-|
①②口口 |--④-|
8
⑤⑥⑥③ |①-②-|
④口口口 |③-④-|
口口口② |--⑤-|
口口①① |--⑥-|
9
口口口口 |--①-|
口②③口 |--②③|
口④①口 |④-⑤-|
口口⑥⑤ |⑥---|
10
③⑥⑦⑦ |①-②-|
②⑤口口 |③---|
①④口口 |④-⑤-|
口口口口 |⑥-⑦-|
11
⑥口口口 |--①-|
⑤口口口 |②-③-|
④口口口 |--④-|
口③②① |⑤-⑥-|
12
口③⑥口 |①-②-|
口②⑤⑦ |③---|
口①④⑦ |④-⑤-|
口口口口 |⑥-⑦-|
13
口口口口 |--①-|
口口口口 |②-③-|
④⑤口口 |----|
③②①口 |④-⑤-|
14
口口④③ |①---|
口口①② |----|
口口口口 |②-③-|
口口口口 |--④-|
15
口口口口 |--①-|
②①口口 |--②-|
口口口口 |--③-|
③④⑤口 |④-⑤-|
16
口⑤⑤③ |--①-|
口口口② |②-③-|
口口④① |--④-|
口口口口 |--⑤-|
17
口口口口 |----|
口口口⑤ |--①-|
口口③④ |②-③-|
①②口口 |④-⑤-|
18
③⑥⑦⑦ |①-②-|
②⑤口口 |③---|
①④口口 |④-⑤-|
口口口口 |⑥-⑦-|
19
⑥口口口 |--①-|
⑤口口口 |②-③-|
④口口口 |--④-|
口③②① |⑤-⑥-|
20
口④⑦口 |①-②-|
口③⑥⑧ |③-④-|
口②⑤⑧ |⑤-⑥-|
口①口口 |⑦-⑧-|
21
口口口口 |--①-|
口口口口 |②-③-|
④⑤口口 |----|
③②①口 |④-⑤-|
22
口口④③ |①---|
口口①② |----|
口口口口 |②-③-|
口口口口 |--④-|
23
口口口口 |----|
②①口口 |①-②-|
口口口口 |--③-|
③③口④ |--④-|
24
口②口口 |①---|
③③口口 |②-③-|
口口①口 |----|
口口口口 |----|
25
口口口口 |----|
口口口口 |----|
口口口口 |----|
口口口口 |----|
26
口口口口 |①---|
口①①口 |--②-|
口口口口
②口口口

口口口⑤
口口④口
口③口口 |③---|
口口口口 |④-⑤-|
27
口口①⑥ |①---|
②③口口 |--②-|
口口④⑤ |③-④-|
口口口口 |⑤-⑥-|
28
口口口口 |①---|
口口口口 |--②-|
①①口⑥ |③-④-|
②③④⑤ |⑤-⑥-|
29
③③口② |①-②-|
口口口① |③---|
④⑤口口 |----|
口口口口 |④-⑤-|
30
口口口口 |①---|
口⑥⑤④ |②-③-|
口口③② |--④-|
口口①① |⑤-⑥-|
31
口口口口 |--①-|
④⑤⑥口 |②-③-|
口②口① |--④-|
③③口口 |⑤-⑥-|
32
④⑤⑥口 |①---|
口口口口 |②-③-|
②口①① |--④-|
口③③口 |⑤-⑥-|
33
④口口① |①---|
④②③① |②---|
口②③口 |③---|
口口口口 |④---|
34
⑦口⑥⑥ |①-②-|
④⑤③③ |③---|
①②口口 |④-⑤-|
口口口口 |⑥-⑦-|
35
口口口口 |--①-|
口口口口 |②-③-|
③⑥②① |--④-|
③口⑤④ |⑤-⑥-|
36
③⑥⑤④ |①-②-|
③口②① |③---|
口⑦口口 |④-⑤-|
口口口口 |⑥-⑦-|
37
口口口① |--①-|
口口②① |②-③-|
④⑤口口 |----|
口③口口 |④-⑤-|
38
⑥⑥④③ |①--②|
口⑤口口 |--③-|
口口口② |--④-|
口口①① |⑤-⑥-|
39
口口口⑤ |----|
口口口④ |--①-|
口口③口 |②-③-|
①②口口 |④-⑤-|
40
③③口口 |①--②|
①①口口 |--③-|
口口口口
口口口②

口口口口
⑤口口口
口口口口 |--④-|
④口口口 |--⑤-|
41
口口口口 |①-②-|
口②④⑥ |③-④-|
①③⑤⑦ |⑤-⑥-|
口口口口 |⑦---|
42
⑦口⑥⑥ |①---|
④⑤②③ |②-③-|
①口口口 |④-⑤-|
口口口口 |⑥-⑦-|
43
口口口口 |--①-|
口口口口 |②-③-|
③⑥②① |--④-|
③口⑤④ |⑤-⑥-|
44
③⑥⑤④ |①-②-|
③口②① |③---|
口⑦口口 |④-⑤-|
口口口口 |⑥-⑦-|
45
口口口① |--①-|
口口②① |②-③-|
④⑤口口 |----|
口③口口 |④-⑤-|
46
⑥⑥④③ |①--②|
口⑤口口 |--③-|
口口口② |--④-|
口口①① |⑤-⑥-|
47
口口口⑥ |----|
口口口⑤ |--①②|
②口④口 |③-④-|
①③口口 |⑤-⑥-|
48
①①④口 |①---|
口口⑤口 |--②-|
口②口口 |③---|
口口③③ |④-⑤-|
49
②口口口 |①--②|
②口口⑥ |--③-|
口③⑤口 |④--⑤|
①①④④ |--⑥-|
50
①②②口 |①---|
①口口口 |----|
口口口口 |----|
口口口口 |②---|
51
口口口⑥ |①---|
口口口⑤ |--②-|
①口④① |③-④-|
②③口口 |⑤-⑥-|
52
①①④口 |①---|
口口⑤口 |--②-|
口②口口 |③---|
口口③③ |④-⑤-|
53
①口口② |①--②|
①口口② |--③-|
口口口口 |----|
口③③口 |----|
54
口①②口 |----|
口口④口 |--①-|
口口④口 |②--③|
口③口口 |--④-|


不確定度: 0

最終更新:2013年05月27日 21:09