僕らの永遠~何度生まれ変わっても、手を繋ぎたいだけの愛だから~
WEAVER

EXTREME

Level: 7
BPM: 128
Notes: 497

1
口口口口 |----|
口口口口 |----|
口口口口 |----|
口口口口 |----|
2
⑥口⑤③ |①-②-|
⑥⑤⑤口 |③-④-|
⑥④②④ |--⑤-|
①④①① |--⑥-|
3
③③口口 |----|
口口④③ |--①-|
口②口口 |②-③-|
口口口① |--④-|
4
⑥⑤口③ |①-②-|
⑥②⑤口 |③-④-|
⑥④⑤① |--⑤-|
①④④① |--⑥-|
5
口④口口 |--①-|
口②③口 |--②③|
口⑥⑥口 |④-⑤-|
口口⑤① |⑥---|
6
①口口① |①-②-|
①口③① |③-④-|
④口④①
④②口口

口⑤口⑥
口⑤口⑥
口口口⑥ |--⑤-|
口口⑤口 |--⑥-|
7
口口③③ |----|
③④口口 |--①-|
口口②口 |②-③-|
①口口口 |--④-|
8
③口⑤⑥ |①-②-|
口⑤②⑥ |③-④-|
①⑤④⑥ |--⑤-|
①④④① |--⑥-|
9
口口④口 |--①-|
口③②口 |--②③|
口⑥⑥口 |④-⑤-|
①⑤口口 |⑥---|
10
口③口口 |①-②-|
①口③② |③---|
口口口口
②口口①

⑦口口⑦
⑦口口口
口④⑥口 |④-⑤-|
口⑤口口 |⑥-⑦-|
11
口口口口 |--①-|
口口口口 |②-③-|
口⑥口① |--④-|
③④⑤② |⑤-⑥-|
12
口②①口 |①-②-|
③②①口 |③---|
③口口③
口口口口

口口⑦⑦
口口口⑥
口口口口 |④-⑤-|
④⑤口口 |⑥-⑦-|
13
①口口口 |--①-|
②口口口 |②-③-|
④口⑤口 |----|
口④③③ |④-⑤-|
14
口口①④ |①---|
③①④① |②---|
⑤口口② |③-④-|
口口②口 |--⑤-|
15
①⑤③⑦ |①-②-|
口口口口 |③-④-|
口⑧⑧口 |⑤-⑥-|
⑦②④⑥ |⑦-⑧-|
16
④④口口 |①-②-|
口口③口 |③-④-|
口口口口
口②①口

口口⑥口
口⑥口口
口口口口 |--⑤-|
口口⑤⑤ |--⑥-|
17
口口口口 |①---|
口口口口 |②-③-|
口②①口
口口③口

⑦口口⑦
口⑥口口
口口⑤口 |④-⑤-|
口④口口 |⑥-⑦-|
18
口③口口 |①-②-|
①口③② |③---|
口口口口
②口口①

⑦口口⑦
⑦口口口
口④⑥口 |④-⑤-|
口⑤口口 |⑥-⑦-|
19
口口口口 |--①-|
口口口口 |②-③-|
口⑥口① |--④-|
③④⑤② |⑤-⑥-|
20
口②①口 |①-②-|
③②①口 |③-④-|
③口④④
口口口口

口口⑧⑧
口口口⑦
口口口口 |⑤-⑥-|
⑤⑥口口 |⑦-⑧-|
21
①口口口 |--①-|
②口口口 |②-③-|
④口⑤口 |----|
口④③③ |④-⑤-|
22
口口①口 |①---|
口①口① |②---|
口口口②
口口②口

⑤口口④
③⑤④口
⑤口口口 |③-④-|
口口口口 |--⑤-|
23
口口口④ |----|
口口口口 |①-②-|
口⑤⑤① |--③-|
④①②③ |④-⑤-|
24
口④④口 |①---|
④口②④ |②-③-|
口口口口 |----|
③①①③ |④---|
25
②口口② |①-②-|
⑥①④⑤ |--③-|
⑥口口口 |④-⑤-|
③④⑤口 |⑥---|
26
⑤①①口 |①---|
⑤口④口 |--②-|
口①①口 |③---|
②口③③ |④-⑤-|
27
口口口② |①---|
口口⑥③ |--②-|
口①①④ |③-④-|
口口⑥⑤ |⑤-⑥-|
28
⑥⑤口⑥ |①---|
口④口口 |--②-|
①③口口 |③-④-|
①②口口 |⑤-⑥-|
29
口口②口 |①-②-|
口口③③ |③---|
④⑤①口 |----|
口口口口 |④-⑤-|
30
①②口口 |①---|
口口口口 |②-③-|
口口口③
②口①①

口口④⑥
⑥⑤口口
口口⑦口 |④-⑤-|
口口⑦口 |⑥-⑦-|
31
①③⑤⑦ |①-②-|
口口口口 |③-④-|
③⑦⑧② |⑤-⑥-|
⑥④口口 |⑦-⑧-|
32
①②④⑥ |①---|
①②④⑥ |②-③-|
⑤⑥⑦① |④-⑤-|
口③②① |⑥-⑦-|
33
①口口④ |①---|
①口口④ |②---|
③口口② |③---|
③口口② |④---|
34
口口③口 |①-②-|
口①①口 |③---|
口②口口
口①①口

口口⑦⑥
⑦⑦口口
口口④⑤ |④-⑤-|
口口口口 |⑥-⑦-|
35
口口口口 |--①-|
口口⑥③ |②-③-|
③①口③ |--④-|
②口④⑤ |⑤-⑥-|
36
①②口③ |①-②-|
口口口③ |③---|
口③口口
口口口口

口口⑥口
④⑤口⑦
⑦口口⑦ |④-⑤-|
口口口口 |⑥-⑦-|
37
①①口口 |--①-|
④⑤口口 |②-③-|
口②口口 |----|
③口③③ |④-⑤-|
38
③⑥⑥③ |①--②|
口口④口 |--③-|
②⑤口② |--④-|
①口①① |⑤-⑥-|
39
口口口⑤ |----|
口口口④ |--①-|
口口③口 |②-③-|
①②口口 |④-⑤-|
40
③③口口 |①--②|
①①口口 |--③-|
口口②①
②②口③

口口口口
⑤口口口
④④口④ |--④-|
口口口口 |--⑤-|
41
口口口③ |①-②-|
⑤①口⑦ |③-④-|
⑥④②③ |⑤-⑥-|
⑤口口⑦ |⑦---|
42
口④③口 |①-②-|
口①①口 |③-④-|
口②口口
口①①口

口口⑧⑦
⑧⑧口口
口口⑤⑥ |⑤-⑥-|
口口口口 |⑦-⑧-|
43
口口口口 |--①-|
口口⑥③ |②-③-|
③①口③ |--④-|
②口④⑤ |⑤-⑥-|
44
①②口③ |①-②-|
口口口③ |③---|
口③口口
口口口口

口口⑥口
④⑤口⑦
⑦口口⑦ |④-⑤-|
口口口口 |⑥-⑦-|
45
①①口口 |--①-|
④⑤口口 |②-③-|
口②口口 |----|
③口③③ |④-⑤-|
46
③⑥⑥③ |①--②|
口口④口 |--③-|
②⑤口② |--④-|
①口①① |⑤-⑥-|
47
口口口⑥ |----|
口口口⑤ |--①②|
②口④口 |③-④-|
①③口口 |⑤-⑥-|
48
①①口口 |①---|
口④②口 |--②-|
③⑤口① |③---|
③口口① |④-⑤-|
49
口口②口 |①--②|
③口②口 |--③-|
口④口① |④--⑤|
⑤口⑥① |--⑥-|
50
④口③② |①---|
④口口口 |--②-|
口口口① |--③-|
口口口① |④---|
51
口口口⑥ |①---|
口口口⑤ |--②-|
口①④口 |③-④-|
②③①口 |⑤-⑥-|
52
①①口口 |①---|
口④②口 |--②-|
③⑤口① |③---|
③口口① |④-⑤-|
53
口口②① |①--②|
口口②① |--③-|
口口口口 |----|
③③口③ |----|
54
口口口④ |----|
①②口口 |--①-|
口口口④ |②--③|
口③口④ |--④-|


不確定度: 0

最終更新:2013年05月27日 21:08