キラキラ☆ステーション
Tatsh feat. Purico

EXTREME

Level: 9
BPM: 176
Notes: 679

1
口口口口 |----|
口口口口 |----|
口口口口 |----|
口口口口 |----|
2
口⑧④口 |①-②-|
⑧⑦③④ |③-④-|
⑦②⑥③ |⑤-⑥-|
①口口⑤ |⑦-⑧-|
3
口⑦④口 |①-②-|
⑦⑧③④ |③-④-|
⑧②⑥③ |⑤-⑥-|
①口口⑤ |⑦-⑧-|
4
口⑧④口 |①-②-|
⑧⑦③④ |③-④-|
⑦②⑥③ |⑤-⑥-|
①口口⑤ |⑦-⑧-|
5
⑤口③口 |①-②-|
⑧⑥④③ |③-④-|
⑦②口④ |⑤-⑥-|
①口口口 |⑦-⑧-|
6
口口③口 |①-②-|
口口⑥④ |③-④-|
口①⑤⑦ |⑤-⑥-|
②口⑧口 |⑦-⑧-|
7
①③⑤⑦ |①②③④|
②口口⑧ |⑤⑥⑦⑧|
④口口口
⑥口口口
8
口⑧口⑦ |①-②-|
⑥③口口 |③-④-|
口口⑤② |⑤-⑥-|
⑥③④① |⑦-⑧-|
9
口⑥⑥⑥ |①---|
口④③① |②-③-|
①③④② |④-⑤-|
⑤⑤⑤口 |⑥---|
10
③⑥口口 |①-②-|
口⑧⑤⑦ |③-④-|
③⑥④② |⑤-⑥-|
口口口① |⑦-⑧-|
11
⑤口口① |①-②-|
②口④口 |③-④-|
口⑥③⑦ |--⑤-|
口口口口 |⑥-⑦-|
12
④口口② |①---|
④②④② |②---|
①口③口 |③---|
口①口③ |④---|
13
④②口② |①---|
④④⑥② |②---|
①口⑤③ |③---|
口①③口 |④-⑤⑥|
14
口口①口 |①---|
④口口④ |②-③-|
③口⑤③ |--④-|
②⑤口口 |--⑤-|
15
口③②口 |--①-|
口②③口 |--②-|
口①④口 |--③-|
口口①口 |--④-|
16
口④口① |--①-|
③⑤⑥② |②-③-|
②⑥⑤③ |--④-|
①口④口 |⑤-⑥-|
17
①⑤⑤② |①-②-|
③⑥口④ |③-④-|
⑥口口口 |--⑤-|
口口口口 |--⑥-|
18
口口口口 |--①-|
口④①口 |--②-|
口③③① |--③-|
口②②口 |--④-|
19
④⑤⑤④ |①-②-|
③口口③ |③-④-|
②口口② |----|
①口口① |⑤---|
20
口⑥口口 |①-②-|
⑤②⑦⑦ |③-④-|
①口③③ |--⑤-|
口④口口 |⑥-⑦-|
21
口⑤②③ |①---|
④口口⑤ |②-③-|
口①口口 |--④-|
口口口口 |--⑤-|
22
口口口口 |--①-|
口②①口 |--②-|
①口③② |--③-|
③④口口 |--④-|
23
③口口口 |①---|
口④②① |②-③-|
③口口口 |④---|
口口口① |----|
24
口①②口 |--①-|
①④④② |--②-|
④①②④ |③---|
口③③口 |④---|
25
①①①① |----|
口口②口 |①---|
口③口口 |--②-|
口口口口 |③---|
26
口口口口 |①---|
①②口口 |②-③-|
①口③口
口口口口

口口口⑤
⑦口口④
⑥口口口 |--④-|
口口口口 |⑤-⑥⑦|
27
①口口口 |①---|
口④口口 |②---|
口口③口 |--③-|
②②②② |④---|
28
口口口⑤ |①---|
④⑤②① |②-③-|
口③④① |--④-|
口口口口 |--⑤-|
29
口口口口 |①---|
口口口口 |②-③-|
①③口口
②②口口

口④口口
口口口⑥
⑦口⑤口 |④-⑤-|
口口口口 |⑥-⑦-|
30
②口口口 |①-②-|
①③口口 |--③-|
口⑤口口 |--④-|
④口⑤口 |--⑤-|
31
口⑥⑤④ |①---|
⑥⑤④口 |②-③-|
口口①③ |--④-|
口②口① |⑤-⑥-|
32
①口口口 |--①-|
口口口④ |②-③-|
口②⑤口 |④-⑤-|
⑦⑥③口 |⑥-⑦-|
33
①①口口 |①-②-|
①口③口 |③-④-|
口②口④ |----|
口口④④ |----|
34
①①口口 |①---|
口①⑤⑤ |--②-|
②口③口 |--③-|
⑤口④口 |④-⑤-|
35
口④口④ |--①-|
①①④口 |--②-|
③⑤口② |--③-|
口②③① |④-⑤-|
36
①口口口 |①---|
①口口口 |--②-|
③口口② |--③-|
口④口⑤ |④-⑤-|
37
口②⑤③ |--①-|
②口①⑤ |②-③-|
④①口口 |--④-|
④④口口 |⑤---|
38
①②⑧⑦ |①-②-|
②口③⑥ |③-④-|
⑧③口⑤ |⑤-⑥-|
⑦⑥⑤④ |⑦-⑧-|
39
④①口口 |①---|
①③口口 |--②-|
口口口② |③---|
口口口口 |④---|
40
口口③口 |①---|
口④②② |②-③-|
①⑤⑤⑤ |--④-|
④口①① |--⑤-|
41
口③口① |①---|
④口②口 |②---|
口口口口 |③---|
④③②① |④---|
42
口口①① |①---|
口口口① |--②-|
②口口口
口口口口

口口口口
口口⑤⑤
口口③口 |--③-|
⑤口④口 |④-⑤-|
43
口口④口 |--①-|
①①口④ |--②-|
③⑤口② |--③-|
口②③① |④-⑤-|
44
①口口口 |①---|
①口口口 |--②-|
③口口② |--③-|
口口口④ |--④-|
45
口②⑤③ |--①-|
②口①⑤ |②-③-|
④①口口 |--④-|
④④口口 |⑤---|
46
①②口口 |①-②-|
②③③口 |③---|
口③③②
口口②①

⑥口口口
口口口⑤
④口口口 |--④-|
口⑥口口 |⑤-⑥-|
47
口口①口 |--①-|
④⑤⑥⑦ |--②-|
③口②口 |--③-|
口口①① |④⑤⑥⑦|
48
口③②① |①-②-|
⑤口口口 |③---|
口口口④ |--④-|
①②③口 |--⑤-|
49
口②口① |--①-|
口口口口 |--②-|
口③③口 |----|
②②①口 |--③-|
50
口口口口 |①---|
①口口① |②---|
②口口②
口口口口

口口口③
⑤④口口
口④口口 |③---|
⑤口口③ |④-⑤-|
51
③②口口 |--①-|
口口④口 |--②-|
口⑤⑤① |--③-|
口口口口 |④-⑤-|
52
口口口口 |①-②-|
①口口① |③---|
②口口②
③口口③

④⑤⑥⑦
口口口⑦
口⑦口口 |④-⑤-|
口⑤⑥口 |⑥-⑦-|
53
⑤⑥⑦⑧ |--①-|
①②口口 |②---|
口口④③ |③-④-|
口口口口 |⑤⑥⑦⑧|
54
⑦⑧⑨⑩ |--①-|
⑥③②① |②-③-|
⑤口口口 |④⑤⑥⑦|
④口口口 |⑧⑨⑩-|
55
口⑧口⑦ |①-②-|
⑥③口口 |③-④-|
口口⑤② |⑤-⑥-|
⑥③④① |⑦-⑧-|
56
口⑥⑥⑥ |①---|
口④③① |②-③-|
①③④② |④-⑤-|
⑤⑤⑤口 |⑥---|
57
③⑥口口 |①-②-|
口⑧⑤⑦ |③-④-|
③⑥④② |⑤-⑥-|
口口口① |⑦-⑧-|
58
⑤口口① |①-②-|
②口④口 |③-④-|
口⑥③⑦ |--⑤-|
口口口口 |⑥-⑦-|
59
④口口② |①---|
④②④② |②---|
①口③口 |③---|
口①口③ |④---|
60
④②口② |①---|
④④⑥② |②---|
①口⑤③ |③---|
口①③口 |④-⑤⑥|
61
口口①口 |①---|
④口口④ |②-③-|
③口⑤③ |--④-|
②⑤口口 |--⑤-|
62
口③②口 |--①-|
口②③口 |--②-|
口①④口 |--③-|
口口①口 |--④-|
63
口⑧口⑦ |①-②-|
⑥③口口 |③-④-|
口⑤口② |⑤-⑥-|
⑥③④① |⑦-⑧-|
64
口⑥⑤⑦ |①---|
口④③① |②-③-|
①③④② |④-⑤-|
⑦⑤⑥口 |⑥-⑦-|
65
③⑥口口 |①-②-|
口⑧⑤⑦ |③-④-|
③⑥④② |⑤-⑥-|
口口口① |⑦-⑧-|
66
⑤⑤⑤① |①-②-|
②口④口 |③-④-|
口⑥③⑦ |--⑤-|
口口⑥口 |⑥-⑦-|
67
④口口② |①---|
④②④② |②---|
①口③口 |③---|
口①口③ |④---|
68
④②口② |①---|
④④⑥② |②---|
①口⑤③ |③---|
口①③口 |④-⑤⑥|
69
口口①口 |①---|
④口口④ |②-③-|
③口⑤③ |--④-|
②⑤口口 |--⑤-|
70
口③②口 |--①-|
口②③口 |--②-|
口①④口 |--③-|
口口①口 |--④-|
71
口④口① |--①-|
③⑤⑥② |②-③-|
②⑥⑤③ |--④-|
①口④口 |⑤-⑥-|
72
④⑤②① |--①-|
⑤⑥口③ |②-③-|
③口⑥⑤ |--④-|
①②⑤④ |⑤-⑥-|
73
④⑤③① |--①-|
⑥⑦②③ |②-③-|
③②⑧⑧ |--④⑤|
①③口口 |⑥⑦⑧-|
74
口口口口 |----|
口口①口 |①---|
①①口口 |----|
口口①口 |----|


不确定度: 0

最終更新:2012年12月18日 01:50