アイデンティティ
サカナクション

EXTREME

Level: 8
BPM: 140
Notes: 487

全程BPM在140附近飄忽不定
1
口口口口 |----|
口口口口 |----|
口口口口 |----|
口口口口 |----|
2
口口口口 |----|
口口口口 |----|
口口口口 |----|
口口口口 |----|
3
口口口口 |----|
口口口口 |----|
口口口口 |----|
口口口口 |----|
4
①口②口 |①---|
①口口④ |②-③-|
①口口口 |④---|
①⑤③口 |⑤---|
5
①口口⑤ |--①-|
②口口口 |②-③-|
口口口③ |④---|
口④口口 |⑤---|
6
④口④口 |①---|
③口③口 |②---|
②口②口 |③---|
①口①口 |④---|
7
③口口④ |--①-|
口口口口 |②-③-|
口口口② |④---|
口口口① |----|
8
①口②口 |①---|
①口④④ |②-③-|
①口口口 |④---|
①⑤③口 |⑤---|
9
①①口口 |--①-|
②②口口 |②-③-|
口口③口
口口③口

口⑤口⑤
口口口口
口口口口 |④---|
口④口④ |⑤---|
10
④口④口 |①---|
③口③口 |②---|
②口②口 |③---|
①口①口 |④---|
11
③口口④ |--①-|
口③口④ |②-③-|
口口②② |④---|
口口①① |----|
12
口口口口 |①-②③|
⑤③⑧口 |--④-|
⑥②口④ |⑤⑥--|
①口⑦① |⑦-⑧-|
13
口口口口 |①-②③|
④口口口 |--④-|
口③②口
①口口口

口口⑤口
口⑥口口
口口⑦口 |⑤-⑥-|
口⑧口口 |⑦-⑧-|
14
口口⑥口 |①-②③|
⑧⑤③② |--④-|
口口⑦口 |⑤-⑥-|
①口④口 |⑦-⑧-|
15
口③④口 |①---|
口口口口 |②---|
②④③② |③---|
①口口① |④---|
16
⑦⑦⑦口 |--①-|
③口口⑥ |②-③-|
⑤口口② |④-⑤-|
①口口④ |⑥-⑦-|
17
口⑥⑤④ |--①-|
口口①口 |②-③-|
口②口口 |--④-|
口③③口 |⑤-⑥-|
18
口口口口 |①-②-|
口①口口 |③-④-|
口口②口
④口③口

口口⑦⑦
口⑥口口
⑤口口口 |⑤-⑥-|
口口口口 |--⑦-|
19
口口口口 |--①-|
③口②② |--②-|
口③①① |--③-|
④口口口 |--④-|
20
③口口口 |①-②-|
口口①口 |③---|
③口口口
口口②口

口④⑦⑦
口口⑤口
口⑥口口 |④-⑤-|
口口口口 |⑥-⑦-|
21
口口口口 |--①-|
①口⑦口 |②-③④|
③⑥口② |--⑤-|
④口⑤口 |⑥-⑦-|
22
①①②口 |①-②-|
口③口口 |③-④-|
口口④口
口口口口

口口⑧口
口口口⑧
⑦口口口 |⑤-⑥-|
口⑤口⑥ |⑦-⑧-|
23
口口口口 |--①-|
口①口口 |--②-|
②口①口 |----|
口②口口 |----|
24
①口口口 |--①-|
②口⑦⑥ |②-③-|
③⑦口⑤ |④-⑤-|
口口口④ |⑥-⑦-|
25
③④②口 |--①-|
口①口口 |--②-|
口⑤①口 |--③-|
口②口口 |④-⑤-|
26
口口口口 |①-②-|
②③⑥⑥ |③-④-|
口口⑦⑦ |⑤-⑥-|
①④口⑤ |--⑦-|
27
口口①① |--①-|
口口口口 |--②-|
口口③③ |--③-|
口口②④ |--④-|
28
②口口口 |①---|
口口①① |②---|
②口口口
口口口口

口③⑥⑥
口口④口
口⑤口口 |③-④-|
口口口口 |⑤-⑥-|
29
口口口口 |--①-|
①①⑤口 |--②-|
④②口② |--③-|
口口③口 |④-⑤-|
30
①口口口 |①---|
口①口② |②---|
④⑤口口 |③-④-|
③⑥口② |⑤-⑥-|
31
口口口口 |----|
口口口口 |----|
口口口口 |①---|
①口口① |----|
32
①①①② |①-②-|
③口①③ |③-④-|
口①口④
口①口口

口口口口
口口⑧口
⑦口⑦口 |⑤-⑥-|
⑤口⑥⑤ |⑦-⑧-|
33
①①①② |①-②-|
③口⑧③ |③-④-|
⑦⑦⑦④ |⑤-⑥-|
⑤口⑥⑤ |⑦-⑧-|
34
①口①② |①-②-|
③口⑧③ |③-④-|
⑦口⑦④ |⑤-⑥-|
⑤口⑥⑤ |⑦-⑧-|
35
①口①② |①-②-|
口③口③ |③-④-|
口口口④
口口口口

口⑧口⑧
⑦口⑦口
⑥口⑥口 |⑤-⑥-|
⑤口⑤口 |⑦-⑧-|
36
口口①口 |--①-|
口口口① |----|
口口口口
口口口口

⑤口⑤口
口④口④
口③口③ |②-③-|
口②口② |④-⑤-|
37
口①口口 |--①-|
①口口口 |--②-|
口口口口
口口口②

口口⑥口
⑤口口⑥
口④口口 |③-④-|
③口口口 |⑤-⑥-|
38
口口口口 |----|
口①①口 |①---|
口口口口
口口口口

③②口口
④口④口
口口②口 |②-③-|
口口③口 |--④-|
39
口口口口 |--①-|
口口口口 |②---|
口①口② |----|
③口口③ |③---|
40
①①①② |①-②-|
③口①③ |③-④-|
口①口④
口①口口

口口口口
口口⑧口
⑦口⑦口 |⑤-⑥-|
⑤口⑥⑤ |⑦-⑧-|
41
①①①② |①-②-|
③口⑧③ |③-④-|
⑦⑦⑦④ |⑤-⑥-|
⑤口⑥⑤ |⑦-⑧-|
42
①口①② |①-②-|
③口⑧③ |③-④-|
⑦口⑦④ |⑤-⑥-|
⑤口⑥⑤ |⑦-⑧-|
43
①口①② |①-②-|
口③口③ |③-④-|
口口口④
口口口口

口⑧口⑧
⑦口⑦口
⑥口⑥口 |⑤-⑥-|
⑤口⑤口 |⑦-⑧-|
44
⑥口①口 |--①-|
⑤口口① |--②-|
口④口⑥ |③-④-|
③口口② |⑤-⑥-|
45
口口口① |--①-|
口②②口 |--②-|
①口口口
口口口口

⑤⑤⑤⑤
③口口④
口口口口 |③-④-|
③口口④ |⑤---|
46
⑦口⑦口 |--①-|
③⑥③⑥ |②-③-|
⑤②⑤② |④-⑤-|
①④①④ |⑥-⑦-|
47
口②口② |①---|
口口口口 |②-③-|
口①口①
口③①③

口口口口
口④④④
口口口口 |④---|
⑤口⑤口 |⑤---|
48
①①口口 |--①-|
②②口口 |②-③-|
口口③口
口口③口

口⑤⑤⑤
口口口口
口口口口 |④---|
口④口④ |⑤---|
49
口口口口 |①---|
口②口口 |②---|
②①②口
①口①口

④③④口
③口③口
口④口口 |③---|
口口口口 |④---|
50
③口口④ |--①-|
口③口④ |②-③-|
②口②② |④---|
①口①① |----|
51
①口②口 |①---|
①口口口 |②-③-|
①口口口
①③口③

口口口口
口④④④
口口口口 |④---|
⑤口⑤口 |⑤---|
52
①①口口 |--①-|
②②口口 |②-③-|
口口③口
口口③口

口⑤口⑤
口口口口
口口口口 |④---|
口④口④ |⑤---|
53
口口口口 |①---|
口②口口 |②---|
②①②口
①口①口

④③④口
③口③口
口④口口 |③---|
口口口口 |④---|
54
③口口④ |--①-|
口③口④ |②-③-|
②口②② |④---|
①口①① |----|
55
④④④④ |①---|
③③③③ |②---|
②口口② |③---|
①口口① |④---|


不確定度: 0

最終更新:2013年05月28日 15:08