maximum the hormone
マキシマム ザ ホルモン

EXTREME

Level: 9
BPM: 143-197
Notes: 808

BPM: 128
1
口口口口 |----|
口口口口 |----|
口口口口 |----|
口口口口 |----|

BPM在143附近飄忽不定
2
口口④口 |①---|
口口③口 |②---|
口口⑥② |③-④-|
口口①⑤ |--⑤⑥|
3
口④口口 |①---|
口③口① |②---|
②⑥口口 |③-④-|
⑤①口口 |--⑤⑥|
4
口口④口 |①---|
①口③口 |②---|
口口⑥② |③-④-|
口口①⑤ |--⑤⑥|
5
口④口口 |①---|
⑦③口① |②---|
②⑥口口 |③-④-|
⑤①口口 |-⑤⑥⑦|
6
①⑨⑨① |①-②③|
⑩⑥②⑩ |④-⑤-|
⑤⑦③⑤ |⑥⑦⑧-|
口⑧④口 |⑨-⑩-|
7
①⑨⑨① |①-②③|
⑩⑥②⑩ |④-⑤-|
⑤⑦③⑤ |⑥⑦⑧-|
口⑧④口 |⑨-⑩-|
8
①⑥⑥① |①②③④|
口③②口 |⑤-⑥-|
口⑤④口
口口口口

⑩口口⑩
⑦⑪⑪⑦
⑧⑫⑫⑧ |⑦⑧⑨-|
⑨口口⑨ |⑩-⑪⑫|
9
口口口口 |①---|
口口口口 |----|
口口口口 |----|
口①①口 |----|
10
①⑨⑨① |①-②③|
⑩⑥②⑩ |④-⑤-|
⑤⑦③⑤ |⑥⑦⑧-|
口⑧④口 |⑨-⑩-|
11
①⑨⑨① |①-②③|
⑩⑥②⑩ |④-⑤-|
⑤⑦③⑤ |⑥⑦⑧-|
口⑧④口 |⑨-⑩-|
12
①⑥⑥① |①②③④|
口③②口 |⑤-⑥-|
口⑤④口
口口口口

⑩口口⑩
⑦⑪⑪⑦
⑧⑫⑫⑧ |⑦⑧⑨-|
⑨口口⑨ |⑩-⑪⑫|
13
口口口口 |①---|
口口口口 |----|
口口口口 |----|
口①①口 |----|
14
①⑨⑨① |①-②③|
⑩②⑥⑩ |④-⑤-|
⑤③⑦⑤ |⑥⑦⑧-|
口④⑧口 |⑨-⑩-|
15
①⑨⑨① |①-②③|
⑩②⑥⑩ |④-⑤-|
⑤③⑦⑤ |⑥⑦⑧-|
口④⑧口 |⑨-⑩-|
16
①⑥⑥① |①②③④|
口②③口 |⑤-⑥-|
口④⑤口
口口口口

⑩口口⑩
⑦⑪⑪⑦
⑧⑫⑫⑧ |⑦⑧⑨-|
⑨口口⑨ |⑩-⑪⑫|
17
口口口口 |①---|
口口口口 |----|
口口口口 |----|
口①①口 |----|
18
①⑨⑨① |①-②③|
口⑥②口 |④-⑤-|
⑤⑦③⑤ |⑥⑦⑧-|
⑩⑧④⑩ |⑨-⑩-|
19
①⑨⑨① |①-②③|
口⑥②口 |④-⑤-|
⑤⑦③⑤ |⑥⑦⑧-|
⑩⑧④⑩ |⑨-⑩-|
20
⑤口口⑤ |①-②③|
①口②① |④-⑤-|
口口③口
口口④口

口口口口
⑨⑥口⑨
⑩⑦口⑩ |⑥⑦⑧-|
⑪⑧口⑪ |⑨-⑩⑪|
21
口①①口 |①---|
口口口口 |----|
口口口口 |----|
口口口口 |----|

BPM: 153
22
⑤①①④ |①--②|
⑦①①⑥ |--③-|
②②③③ |④-⑤-|
②②③③ |⑥-⑦-|
23
④①①⑤ |①--②|
⑥①①⑦ |--③-|
②②③③ |④-⑤-|
②②③③ |⑥-⑦-|
24
⑤①①④ |①--②|
⑦①①⑥ |--③-|
③③②② |④-⑤-|
③③②② |⑥-⑦-|
25
⑤口口⑤ |①--②|
口口口口 |--③-|
④④①② |④---|
③③②① |⑤---|
26
⑤①①④ |①--②|
⑦①①⑥ |--③-|
②②③③ |④-⑤-|
②②③③ |⑥-⑦-|
27
④①①⑤ |①--②|
⑥①①⑦ |--③-|
②②③③ |④-⑤-|
②②③③ |⑥-⑦-|
28
⑤①①④ |①--②|
⑦①①⑥ |--③-|
③③②② |④-⑤-|
③③②② |⑥-⑦-|
29
口①②口 |①--②|
口②①口 |--③-|
④口口③ |④-⑤-|
⑥口口⑤ |⑥---|

BPM在197附近飄忽不定
30
口⑥口⑥ |①-②-|
口①④① |③-④-|
口⑤②⑤ |--⑤-|
口①③口 |--⑥-|
31
⑦⑦口⑦ |①-②-|
⑥口口口 |③-④-|
⑤⑤②⑤ |--⑤-|
口③④① |⑥-⑦-|
32
口⑥口⑥ |①-②-|
口口口口 |③-④-|
口⑤②⑤ |--⑤-|
①③④① |--⑥-|
33
口⑥口⑥ |①-②-|
口口口口 |③-④-|
口⑤②⑤ |--⑤-|
口③④① |--⑥-|
34
口口口口 |①-②-|
①②③口 |③-④-|
④⑥⑤⑦ |--⑤-|
①②③口 |⑥-⑦-|
35
③①④② |①-②-|
①③②④ |③-④-|
口口口口 |----|
口口口口 |----|
36
口②口⑤ |①-②-|
①⑦①③ |③-④-|
⑥②⑥口 |--⑤-|
口④口③ |⑥-⑦-|
37
①口①口 |①---|
口口口口 |----|
口口口口 |----|
口口口口 |----|
38
口口口口 |①-②-|
①②③口 |③-④-|
④⑥⑤⑦ |--⑤-|
①②③口 |⑥-⑦-|
39
③①④② |①-②-|
①③②④ |③-④-|
口口口口 |----|
口口口口 |----|
40
口②口⑤ |①-②-|
①⑦①③ |③-④-|
⑥②⑥口 |--⑤-|
口④口③ |⑥-⑦-|
41
①口①口 |①---|
口口口口 |----|
口口口口 |----|
口口口口 |----|
42
③②①④ |①-②-|
③②①口 |③-④-|
⑦⑤⑥④ |--⑤-|
口⑥⑤⑦ |⑥-⑦-|
43
④口①口 |①-②-|
口②⑦③ |③-④-|
口口⑥口 |--⑤-|
口口⑤口 |⑥-⑦-|
44
⑦①⑦① |①---|
口⑥口③ |②-③-|
④口⑤口 |④-⑤-|
口②口② |⑥-⑦-|
45
口口口口 |①---|
口口口口 |----|
口①口① |----|
口口口口 |----|
46
③②①④ |①-②-|
③②①口 |③-④-|
⑦⑤⑥④ |--⑤-|
口⑥⑤⑦ |⑥-⑦-|
47
④口①口 |①-②-|
口②⑦③ |③-④-|
口口⑥口 |--⑤-|
口口⑤口 |⑥-⑦-|
48
⑦①⑦① |①---|
口⑥口③ |②-③-|
④口⑤口 |④-⑤-|
口②口② |⑥-⑦-|
49
口口口口 |①---|
口口口口 |----|
口①口① |----|
口口口口 |----|
50
口口口口 |①-②-|
⑥⑧④② |③-④-|
口口口口 |⑤-⑥-|
⑤⑦③① |⑦-⑧-|
51
⑥口④② |①-②-|
⑦⑦⑦⑦ |③-④-|
⑤口③① |⑤-⑥-|
口⑦⑦口 |⑦---|
52
⑧④⑥② |①-②-|
口口口口 |③-④-|
⑦③⑤① |⑤-⑥-|
口口口口 |⑦-⑧-|
53
口口口口 |①---|
口①①① |----|
口口口口 |----|
口口口口 |----|
54
口口口口 |①-②-|
⑥⑧④② |③-④-|
口口口口 |⑤-⑥-|
⑤⑦③① |⑦-⑧-|
55
⑥口④② |①-②-|
⑦⑦⑦⑦ |③-④-|
⑤口③① |⑤-⑥-|
口⑦⑦口 |⑦---|
56
⑧④⑥② |①-②-|
口口口口 |③-④-|
⑦③⑤① |⑤-⑥-|
口口口口 |⑦-⑧-|
57
口口口口 |①---|
口①①① |----|
口口口口 |----|
口口口口 |----|
58
口口口口 |①-②-|
口口口口 |③-④-|
⑦④⑤⑥ |⑤-⑥-|
口③②① |--⑦-|
59
⑦①②③ |①-②-|
口⑥⑤④ |③-④-|
口口口口 |⑤-⑥-|
口口口口 |--⑦-|
60
口口口口 |①-②-|
口口口口 |③-④-|
⑦④⑤⑥ |⑤-⑥-|
口③②① |--⑦-|
61
⑦①②③ |①-②-|
口⑥⑤④ |③-④-|
口口口口 |⑤-⑥-|
口口口口 |--⑦-|
62
口口口口 |①---|
口口口口 |②---|
④③②① |③---|
④③②① |④---|
63
①②③④ |①---|
①②③④ |②---|
口口口口 |③---|
口口口口 |④---|
64
口口口口 |①---|
口口口口 |②---|
④③②① |③---|
④③②① |④---|
65
④⑧⑦③ |①②③④|
②⑥⑤① |⑤⑥⑦⑧|
口⑨⑨口 |⑨---|
口口口口 |----|
66
口口口口 |①-②-|
⑥⑧④② |③-④-|
口口口口 |⑤-⑥-|
⑤⑦③① |⑦-⑧-|
67
⑥口④② |①-②-|
⑦⑦⑦⑦ |③-④-|
⑤口③① |⑤-⑥-|
口⑦⑦口 |⑦---|
68
⑧④⑥② |①-②-|
口口口口 |③-④-|
⑦③⑤① |⑤-⑥-|
口口口口 |⑦-⑧-|
69
口口口口 |①---|
口①①① |----|
口口口口 |----|
口口口口 |----|
70
口口口口 |①-②-|
⑥⑧④② |③-④-|
口口口口 |⑤-⑥-|
⑤⑦③① |⑦-⑧-|
71
⑥口④② |①-②-|
⑦⑦⑦⑦ |③-④-|
⑤口③① |⑤-⑥-|
口⑦⑦口 |⑦---|
72
⑧④⑥② |①-②-|
口口口口 |③-④-|
⑦③⑤① |⑤-⑥-|
口口口口 |⑦-⑧-|
73
口口口口 |①---|
口①①① |----|
口口口口 |----|
口口口口 |----|
74
口口口口 |①--②|
③口⑥② |--③-|
口⑤④口 |--④-|
口①①口 |⑤-⑥-|
75
口口口口 |①--②|
③①⑥② |--③-|
口⑤④口 |--④-|
口①①口 |⑤-⑥-|
76
口口口口 |①--②|
③①⑥② |--③-|
口⑤④口 |--④-|
口①①口 |⑤-⑥-|
77
口口口口 |①--②|
③①⑥② |--③-|
口⑤④口 |--④-|
口①①口 |⑤-⑥-|
78
③①①③ |①--②|
口口口口 |--③-|
⑥⑤④⑥ |--④-|
④②②⑤ |⑤-⑥-|
79
口③④口 |①--②|
③①①④ |--③-|
口口口⑤ |--④-|
⑤②②口 |--⑤-|
80
③口口③ |①--②|
口口口口 |--③-|
①②②口
口口口①

口口口口
口④④口
⑥口口⑤ |--④-|
口⑥⑤口 |⑤-⑥-|
81
②①①⑤ |①---|
④口口③ |----|
口②⑤口 |②-③-|
口④③口 |④-⑤-|
82
口②②口 |①--②|
口口口口 |--③-|
①口口①
③口口③

④口口⑤
口口口④
⑥⑤口⑥ |--④-|
口口口口 |⑤-⑥-|
83
口③④口 |①--②|
③①①④ |--③-|
口口口⑤ |--④-|
⑤②②口 |--⑤-|
84
口⑥⑤口 |①--②|
口③④口 |--③-|
①口③口 |--④-|
口②②① |⑤-⑥-|
85
①口口④ |①-②-|
③口口② |③-④-|
口①④口 |----|
口③②口 |----|
86
口口口口 |----|
口口口口 |----|
口口口口 |----|
口口口口 |----|

BPM: 163
87
口③③口 |--①②|
口②口口 |③---|
口口①口 |----|
口口口口 |----|


不確定度: 0

最終更新:2013年05月28日 15:14