ヘビーローテーション
AKB48

ADVANCED

Level: 5
BPM: 178
Notes: 494

1
口口口口 |----|
口口口口 |----|
口口口口 |----|
口口口口 |----|
2
①②口③ |①-②-|
⑥口⑤④ |--③-|
口口口口 |④-⑤-|
口口口口 |--⑥-|
3
口口口口 |①-②-|
口口口口 |--③-|
①②口③ |--④-|
⑤口④口 |--⑤-|
4
口口口口 |①-②-|
⑥口⑤④ |--③-|
①②口③ |④-⑤-|
口口口口 |--⑥-|
5
口①②③ |--①-|
口④口③ |②---|
口口④口 |③---|
口口口口 |④---|
6
②口口口 |①---|
②口③口 |----|
①③口口 |②---|
①①口口 |③---|
7
口口口② |①---|
口口③② |----|
口③口① |②---|
口口①① |③---|
8
②口口口 |①---|
②③口口 |----|
①口③口 |②---|
①①口口 |③---|
9
口口口② |①---|
口③口② |----|
口③③① |②---|
口口①① |③---|
10
②口口口 |①---|
②口③口 |----|
①③③口 |②---|
①①口口 |③---|
11
③口口③ |①---|
②口口② |----|
口口口① |②---|
口口①① |③---|
12
口①①口 |①---|
②口口② |----|
口口口口 |②---|
口口口口 |----|
13
口口口口 |①---|
口口口口 |----|
①②②① |②---|
口口口口 |----|
14
①③④② |①---|
③①②④ |②---|
口口口口 |③---|
口口口口 |④---|
15
口口口口 |①---|
口口口口 |②---|
①③④② |③---|
③①②④ |④---|
16
①③③① |①---|
②④④② |②---|
口口口口 |③---|
口口口口 |④---|
17
口口口口 |①---|
口口口口 |----|
②①①② |----|
口口口口 |②---|
18
口口口口 |①---|
口①①口 |----|
口口口口 |②---|
口②②口 |----|
19
口②②口 |①---|
③口口① |②---|
③口口① |③---|
口④④口 |④---|
20
口口口口 |①---|
②①①② |----|
口①①口 |----|
口口口口 |②---|
21
口口口① |①---|
口口②口 |②---|
口③口口 |③---|
④口口口 |④---|
22
④口口口 |①---|
口③口口 |②---|
口口②口 |③---|
口口口① |④---|
23
口①①口 |①---|
②口口② |②-③-|
③口口③ |----|
口④④口 |④---|
24
口①①口 |①---|
②口口② |----|
口口口口 |----|
口口口口 |②---|
25
口口口① |①---|
口口②口 |②---|
口③口口 |③---|
④口口口 |④---|
26
④口口口 |①---|
口③口口 |②---|
口口②口 |③---|
口口口① |④---|
27
口①①口 |①-②-|
②口口② |③-④-|
③口口③ |----|
口④④口 |----|
28
口口口口 |----|
③口口口 |①---|
口②口口 |②---|
口①口口 |③---|
29
口①①口 |①---|
口口②口 |②-③-|
口口口③ |----|
口口口口 |----|
30
口口口口 |----|
口口口③ |①---|
口口②口 |②---|
口口①口 |③---|
31
口①①口 |①---|
口②口口 |②-③-|
③口口口 |----|
口口口口 |----|
32
③口口口 |----|
口口②口 |①---|
②口口口 |②---|
①口口口 |③---|
33
口①①② |①---|
口③口口 |②---|
口口口③ |③---|
口口口④ |④---|
34
口口口口 |①---|
③口③口 |----|
口②口② |②-③-|
口①①口 |----|
35
口①口① |①---|
口口口口 |----|
口口口口 |----|
口口口口 |----|
36
口口口口 |----|
③口口口 |①---|
口②口口 |②---|
口①口口 |③---|
37
口①①口 |①---|
口口②口 |②-③-|
口口口③ |----|
口口口口 |----|
38
口口口口 |----|
口口口③ |①---|
口口②口 |②---|
口口①口 |③---|
39
口①①口 |①---|
口②口口 |②-③-|
③口口口 |----|
口口口口 |----|
40
③口口口 |----|
口口②口 |①---|
②口口口 |②---|
①口口口 |③---|
41
口①①② |①---|
口③口口 |②---|
口口口③ |③---|
口口口④ |④---|
42
口口口口 |①---|
口口口口 |----|
①口口② |②---|
口②①口 |----|
43
口口口口 |①---|
①口口② |----|
口②①口 |②---|
口口口口 |----|
44
①②③口 |----|
口口口口 |①---|
口口口口 |②---|
口口口口 |③---|
45
口口口① |①---|
口口口② |②---|
口口口③ |③---|
口口口④ |④---|
46
口口口口 |①---|
口口口口 |②---|
④口口口 |③---|
③②①口 |④---|
47
口口口口 |①---|
①②②口 |----|
口③③口 |②---|
口口口口 |③---|
48
口口口口 |①---|
口口口口 |----|
②口口② |----|
口①①口 |②---|
49
②③③② |①---|
④①①④ |②---|
口口口口 |③---|
口口口口 |④---|
50
口口口口 |①---|
口②②口 |----|
口①①口 |②---|
口口口口 |----|
51
口③③④ |①-②-|
口⑤口④ |③---|
①口⑤② |④---|
口口口口 |⑤---|
52
②口口口 |①---|
②口③口 |----|
①③口口 |②---|
①①口口 |③---|
53
口口口② |①---|
口口③② |----|
口③口① |②---|
口口①① |③---|
54
②口口口 |①---|
②③口口 |----|
①口③口 |②---|
①①口口 |③---|
55
口口口② |①---|
口③口② |----|
口③③① |②---|
口口①① |③---|
56
②口口口 |①---|
②口③口 |----|
①③③口 |②---|
①①口口 |③---|
57
③口口③ |①---|
②口口② |----|
口口口① |②---|
口口①① |③---|
58
口①①口 |①---|
②口口② |----|
口口口口 |②---|
口口口口 |----|
59
口口口口 |①---|
口口口口 |----|
①②②① |②---|
口口口口 |----|
60
①②②① |①---|
③④④③ |②---|
口口口口 |③---|
口口口口 |④---|
61
口口口口 |①---|
口口口口 |②---|
①②②① |③---|
③④④③ |④---|
62
口②②口 |①---|
③口口① |②---|
③口口① |③---|
口④④口 |④---|
63
②口口② |①---|
口③③口 |----|
口①①口 |②---|
口口口口 |③---|
64
口口口口 |①---|
口口口口 |----|
口①①口 |----|
②口口② |②---|
65
④口口④ |①---|
口③③口 |②---|
②口口② |③---|
口①①口 |④---|
66
口口口口 |①---|
①口口③ |②---|
口②④口 |③---|
口口口口 |④---|
67
口①①② |①---|
口③口② |----|
口口③口 |②---|
口口口口 |③---|
68
②口口口 |①---|
②口③口 |----|
①③口口 |②---|
①①口口 |③---|
69
口口口② |①---|
口口③② |----|
口③口① |②---|
口口①① |③---|
70
②口口口 |①---|
②③口口 |----|
①口③口 |②---|
①①口口 |③---|
71
口口口② |①---|
口③口② |----|
口③③① |②---|
口口①① |③---|
72
②口口口 |①---|
②口③口 |----|
①③③口 |②---|
①①口口 |③---|
73
③口口③ |①---|
②口口② |----|
口口口① |②---|
口口①① |③---|
74
口①①口 |①---|
②口口② |----|
口口口口 |②---|
口口口口 |----|
75
口口口口 |①---|
口口口口 |----|
①②②① |②---|
口口口口 |----|
76
①③④② |①---|
③①②④ |②---|
口口口口 |③---|
口口口口 |④---|
77
口口口口 |①---|
口口口口 |②---|
①③④② |③---|
③①②④ |④---|
78
①③③① |①---|
②④④② |②---|
口口口口 |③---|
口口口口 |④---|
79
口口口口 |①---|
口口口口 |----|
②①①② |----|
口口口口 |②---|
80
口口口口 |①---|
口①①口 |----|
口口口口 |②---|
口②②口 |----|
81
口②②口 |①---|
③口口① |②---|
③口口① |③---|
口④④口 |④---|
82
口口口② |①---|
⑤口④③ |--②-|
口①①口 |③-④-|
口口口口 |--⑤-|
83
口口口口 |①-②-|
口口口口 |--③-|
①②口③ |--④-|
⑤口④口 |--⑤-|
84
口口口口 |①-②-|
⑥口⑤④ |--③-|
①②口③ |④-⑤-|
口口口口 |--⑥-|
85
口①②口 |--①-|
口③③口 |②---|
口④④口 |③---|
口口口口 |④---|
86
①口口② |①---|
口口口口 |----|
口口口口 |②---|
口口口口 |----|

BPM: 160
87
口①口口 |①---|
①口口口
口口口口
口口口口

BPM: 150

口口②口
口口口② |②---|
口口口口
口口口口

BPM: 143

口口口口
口口口口
口口口③ |③---|
口口③口

BPM: 180

口口口口
口口口口
④口口口
口④口口 |④---|
88
口口口口 |①---|
口①①口 |----|
口①①口 |----|
口口口口 |----|


不確定度: 0

最終更新:2013年05月28日 15:08