ヘビーローテーション
AKB48

EXTREME

Level: 8
BPM: 178
Notes: 756

1
口口口口 |----|
口口口口 |----|
口口口口 |----|
口口口口 |----|
2
①②①口 |①-②-|
口口口口 |--③-|
口②口口
口③口③

⑥口⑥口
口口④口
口口⑤口 |④-⑤-|
口口④口 |--⑥-|
3
口①口⑤ |①-②-|
④②口④ |--③-|
⑥①口口 |--④-|
③口口③ |⑤-⑥-|
4
①②①口 |①-②-|
口口口口 |--③-|
口②口口
口③口③

⑥口⑥口
口口④口
口口⑤口 |④-⑤-|
口口④口 |--⑥-|
5
⑤①口① |--①-|
口⑤口③ |②---|
口口口③ |③-④-|
②口④② |⑤---|
6
③口②口 |①---|
①口①口 |----|
①①①② |②-③-|
④①口④ |④---|
7
口①口① |①---|
口①①① |----|
②口①④ |②-③-|
口④②③ |④---|
8
①②①② |①---|
①①①口 |----|
④①口口 |②-③-|
③④口口 |④---|
9
②③口④ |①---|
口①口① |----|
口①①① |②-③-|
④口①② |④---|
10
口口④口 |①---|
①口①口 |----|
①①①② |②-③-|
④①②③ |④---|
11
口①口① |①---|
口①①① |----|
②②①③ |②---|
③③②口 |③---|
12
①①①① |①---|
②口口口 |----|
②②口口 |②---|
口口口口 |----|
13
口口口口 |①---|
口口口① |----|
口口①① |②---|
②②②② |----|
14
①②①② |①---|
②①②① |②---|
③④③④ |③---|
④③④③ |④---|
15
①②①② |①---|
②①②① |②---|
③④③④ |③---|
④③④③ |④---|
16
①②④③ |①---|
③④②① |②---|
口口口口 |③---|
口口口口 |④---|
17
口口口口 |①---|
②口口② |----|
口②②口 |----|
①①①① |②---|
18
②口口口 |①---|
口①①口 |----|
①口口① |②---|
口口口② |----|
19
④②③① |①---|
②口口③ |②---|
③口口② |③---|
①③②④ |④---|
20
口口口② |①---|
口①①口 |----|
口①①口 |----|
②口口口 |②---|
21
口③口口 |①---|
③②①口 |②---|
口①②口 |③---|
口口口④ |④---|
22
口口口口 |①---|
口④③口 |②---|
口③②① |③---|
口口①口 |④---|
23
口①②③ |①---|
①口③② |②-③-|
口口口口 |----|
口口口口 |----|
24
②口口口 |①---|
口口口口 |----|
口①①口 |----|
口口口② |②---|
25
口口③口 |①---|
口①②③ |②---|
口②①口 |③---|
④口口口 |④---|
26
口③口口 |①---|
口口④口 |②---|
①②口③ |③---|
口①口口 |④---|
27
①口②口 |①-②-|
口③口④ |③-④-|
②口①口 |----|
口④口③ |----|
28
口口口口 |----|
口口口口 |①---|
②③口口 |②---|
①②口口 |③---|
29
口①③② |①---|
口口①③ |②-③-|
口口口① |----|
口口口口 |----|
30
口口口③ |----|
口②①口 |①---|
口①②口 |②---|
③口口口 |③---|
31
①口口口 |①---|
②口口② |②-③-|
③口口③ |----|
口口口① |----|
32
口口口口 |----|
口口口口 |①---|
口口③② |②---|
口口②① |③---|
33
②③①口 |①---|
③①口口 |②---|
①口口口 |③---|
口口口④ |④---|
34
口口口口 |①---|
口③②口 |----|
口②③① |②-③-|
口口①口 |----|
35
口口口口 |①---|
①口口① |----|
①口口① |----|
口口口口 |----|
36
口口口口 |----|
口口口口 |①---|
②③口口 |②---|
①②口口 |③---|
37
口①③② |①---|
口口①③ |②-③-|
口口口① |----|
口口口口 |----|
38
口口口③ |----|
口②①口 |①---|
口①②口 |②---|
③口口口 |③---|
39
①口口口 |①---|
②口口② |②-③-|
③口口③ |----|
口口口① |----|
40
口口口口 |----|
口口口口 |①---|
口口③② |②---|
口口②① |③---|
41
②③①口 |①---|
③①口口 |②---|
①口口口 |③---|
口口口④ |④---|
42
口口口口 |①---|
②口口② |----|
口②口① |②---|
口口①口 |----|
43
②②②② |①---|
口口①口 |----|
①口口① |②---|
口口口口 |----|
44
③②③口 |----|
口口①口 |①---|
口口口② |②---|
①口口口 |③---|
45
口口口① |①---|
②口④口 |②---|
口①口口 |③---|
④③②③ |④---|
46
②①②③ |①---|
④口口口 |②---|
口③口① |③---|
口口④口 |④---|
47
口口口② |①---|
③口口③ |----|
口③③口 |②---|
②①口① |③---|
48
②口口口 |①---|
口①①口 |----|
①口口① |----|
口口口② |②---|
49
口口口口 |①---|
②①①② |②---|
①②②① |③---|
④③③④ |④---|
50
①①①① |①---|
口口口口 |----|
口口口口 |----|
口口口口 |----|
51
⑥③③⑤ |①-②-|
口⑥口④ |③---|
口口口④ |④-⑤-|
①②②① |⑥---|
52
③口②口 |①---|
①口①口 |----|
①①①② |②-③-|
④①口④ |④---|
53
口①口① |①---|
口①①① |----|
②口①④ |②-③-|
口④②③ |④---|
54
①②①② |①---|
①①①口 |----|
④①口口 |②-③-|
口④口③ |④---|
55
②口③④ |①---|
口①口① |----|
口①①① |②-③-|
④口①② |④---|
56
口口④口 |①---|
①口①口 |----|
①①①② |②-③-|
④①②③ |④---|
57
口①口① |①---|
口①①① |----|
②②①③ |②---|
③③②口 |③---|
58
①①①① |①---|
②口口口 |----|
②②口口 |②---|
口口口口 |----|
59
口口口口 |①---|
口口口① |----|
口口①① |②---|
②②②② |----|
60
①②①② |①---|
②①②① |②---|
③④③④ |③---|
④③④③ |④---|
61
①②①② |①---|
②①②① |②---|
③④③④ |③---|
④③④③ |④---|
62
①②④③ |①---|
③④②① |②---|
口口口口 |③---|
口口口口 |④---|
63
②口口② |①---|
口③③口 |----|
③口口③ |②---|
①①①① |③---|
64
②口口口 |①---|
①③③① |----|
口①①口 |②---|
口口口② |③---|
65
④②③① |①---|
②口口③ |②---|
③口口② |③---|
①③②④ |④---|
66
口口口口 |①---|
口①①③ |②---|
口①①口 |③---|
②④④口 |④---|
67
④①①口 |①---|
口④口② |----|
口口口② |②-③-|
口口③口 |④---|
68
③口②口 |①---|
①口①口 |----|
①①①② |②-③-|
④①口④ |④---|
69
口①口① |①---|
口①①① |----|
②口①④ |②-③-|
口④②③ |④---|
70
①②①② |①---|
①①①口 |----|
④①口口 |②-③-|
口④口③ |④---|
71
②口③④ |①---|
口①口① |----|
口①①① |②-③-|
④口①② |④---|
72
口口④口 |①---|
①口①口 |----|
①①①② |②-③-|
④①②③ |④---|
73
口①口① |①---|
口①①① |----|
②②①③ |②---|
③③②口 |③---|
74
①①①① |①---|
②②口口 |----|
口口口口 |②---|
口口②② |----|
75
口口口口 |①---|
口口①① |----|
②②②② |②---|
①①口口 |----|
76
①②①② |①---|
②①②① |②---|
③④③④ |③---|
④③④③ |④---|
77
①②①② |①---|
②①②① |②---|
③④③④ |③---|
④③④③ |④---|
78
①②④③ |①---|
③④②① |②---|
口口口口 |③---|
口口口口 |④---|
79
口口口口 |①---|
②口口② |----|
口②②口 |----|
①①①① |②---|
80
②口口口 |①---|
口①①口 |----|
①口口① |②---|
口口口② |----|
81
④②③① |①---|
②口口③ |②---|
③口口② |③---|
①③②④ |④---|
82
⑥口⑥口 |①-②-|
②①①口 |--③-|
口①①② |④-⑤-|
③④⑤口 |--⑥-|
83
口①口⑤ |①-②-|
④②口④ |--③-|
⑥①口口 |--④-|
③口口③ |⑤-⑥-|
84
①②①口 |①-②-|
口口口口 |--③-|
口②口口
口③口③

⑥口⑥口
口口④口
口口⑤口 |④-⑤-|
口口④口 |--⑥-|
85
口①口① |--①-|
③③③③ |②---|
口口④口 |③---|
②口口② |④---|
86
口口口口 |①---|
口口口口 |----|
口②口口 |②---|
口①②口 |----|

BPM: 160
87
口口口口 |①---|
①口口口
口口口①
口口口口

BPM: 150

口②口口
口口口口 |②---|
口口口口
口口②口

BPM: 143

口口③口
口口口口
口口口口 |③---|
口③口口

BPM: 180

口口口④
口口口口
口口口口
④口口口 |④---|
88
①口口口 |①---|
口口口口 |----|
口口口口 |----|
口口口① |----|


不確定度: 0

最終更新:2013年05月28日 15:07