グローランプ
banbi

EXTREME

Level: 8
BPM: 230
Notes: 472

1
口口口口 |----|
口口口口 |----|
口口口口 |----|
口口口口 |----|
2
口口口口 |----|
口口口口 |----|
口口口口 |----|
口②①口 |--①②|
3
②③口④ |①---|
口①①口 |--②-|
口口口口 |--③-|
口口口口 |--④-|
4
①口①口 |----|
②口②口 |----|
口口口口 |①-②-|
口③口③ |--③-|
5
口口口口 |----|
口口③口 |①---|
口口②口 |②---|
口口①口 |③---|
6
口④①④ |①---|
口③口③ |②---|
口口口口 |③-④-|
口⑤②⑤ |--⑤-|
7
口口口口 |----|
口口③口 |①---|
口口②口 |②---|
口口①口 |③---|
8
口④①④ |①---|
口③⑤③ |②---|
口口口口 |③-④-|
口口②口 |--⑤-|
9
口口口口 |----|
口口口口 |①-②-|
①④口口 |--③-|
②③口口 |④---|
10
口口口口 |①-②-|
口⑤口⑤ |--③-|
口口①④ |④---|
口口②③ |⑤---|
11
口口①口 |①---|
口口口④ |--②-|
口口③④ |③---|
口口②口 |--④-|
12
口③口③ |--①-|
口①②口 |--②-|
口①口口 |③---|
④口④口 |--④-|
13
口口口口 |----|
口③口口 |①---|
口②口口 |②---|
口①口口 |③---|
14
④①④口 |①---|
③口③口 |②---|
口口口口 |③-④-|
⑤②⑤口 |--⑤-|
15
口口口口 |----|
口③口口 |①---|
口②口口 |②---|
口①口口 |③---|
16
④①④口 |①---|
③⑤③口 |②---|
口口口口 |③-④-|
口②口口 |--⑤-|
17
口口口口 |----|
口口口口 |①-②-|
口口④① |--③-|
口口③② |④---|
18
口口口口 |①-②-|
⑤口⑤口 |--③-|
④①口口 |④---|
③②口口 |⑤---|
19
口①口口 |①---|
④口口口 |--②-|
④③口口 |③---|
口②口口 |--④-|
20
口口口④ |--①-|
口口口① |--②-|
口口④① |③---|
③③②② |④---|
21
①口口口 |①---|
口口口口 |----|
口①口口 |----|
口口口口 |----|
22
口口口口 |----|
口口口口 |----|
口口口口 |----|
口口口口 |----|
23
③口口口 |①---|
②口口口 |--②-|
口口口口 |----|
①口口口 |③---|
24
口口口① |----|
口口口口 |①---|
口⑤④口 |②-③-|
口③②口 |④-⑤-|
25
口①①口 |①---|
口口③口 |----|
口口②口 |----|
口口口口 |②-③-|
26
口口口口 |①-②-|
④①口③ |--③-|
④②⑤③ |--④-|
口口⑤口 |--⑤-|
27
口口①口 |----|
口口②口 |①-②-|
口③口③ |--③-|
口④口④ |--④-|
28
口①②① |----|
口口口口 |----|
口口②口 |①---|
口口口口 |②---|
29
口口口口 |①---|
口①③① |--②-|
口口口口 |③---|
口口②口 |----|
30
②口口① |----|
口口口口 |----|
口口口口 |①---|
①口口② |②---|
31
口口口口 |①---|
③①①② |--②-|
②①①③ |③---|
口口口口 |----|
32
口口口口 |----|
口口口口 |----|
口口口口 |----|
口口口① |①---|
33
口口口口 |①---|
口口④口 |--②-|
口口③口 |----|
②①口口 |③-④-|
34
口口⑤口 |①-②-|
④①⑤③ |--③-|
④②口③ |--④-|
口口口口 |--⑤-|
35
口④口④ |----|
口③口③ |①-②-|
口口②口 |--③-|
口口①口 |--④-|
36
口口②口 |----|
口口口口 |----|
口①②① |①---|
口口口口 |②---|
37
口口口口 |①---|
口①③① |--②-|
口口口口 |③---|
口口②口 |----|
38
口①口口 |----|
①口②口 |----|
口②口口 |①---|
口口口口 |②---|
39
②④口口 |①---|
口③口口 |--②-|
口④口① |③---|
口口①口 |--④-|
40
口口①口 |--①-|
②③④⑤ |--②-|
口口①口 |③-④-|
口口口口 |⑤---|
41
口口口口 |----|
口口口口 |----|
口口②口 |----|
口口口① |①-②-|
42
②③③口 |①-②-|
口①④口 |--③-|
口④口口 |--④-|
口⑤⑤口 |--⑤-|
43
口口口口 |----|
口口口口 |----|
口口口口 |----|
口口口口 |----|
44
口口口口 |----|
口口口口 |----|
口④③口 |①-②-|
口②①口 |③-④-|
45
口①①口 |①---|
口②②口 |--②-|
③口口③ |③---|
口口口口 |----|
46
口口口口 |----|
①口口① |----|
口口口口 |①---|
口②②口 |②---|
47
口①①口 |①---|
口口口口 |--②-|
口③②口 |③---|
口口口口 |----|
48
口口口口 |----|
口口口口 |----|
口口口口 |----|
口口口口 |----|
49
口口口口 |----|
口口口口 |----|
口口口口 |----|
口②①口 |①-②-|
50
③口口③ |①-②-|
④口口④ |--③-|
⑤②①⑤ |--④-|
口口口口 |--⑤-|
51
口口口口 |----|
口口口口 |----|
口口口口 |----|
口口口口 |----|
52
口口口口 |----|
口口②① |----|
口口口口 |①---|
口口口口 |②---|
53
口口②③ |①---|
口①口口 |--②-|
口口②③ |③---|
口口口口 |----|
54
口口口口 |----|
口①口口 |----|
口口口口 |①---|
口口口口 |----|
55
②③口口 |①---|
①口口口 |--②-|
②③口口 |③---|
口口口口 |----|
56
口口口口 |----|
口口口口 |----|
口③②① |①-②-|
口口口口 |③---|
57
口口口口 |①---|
口③④口 |②---|
口口⑤口 |③---|
口①②口 |④-⑤-|
58
口口口② |①---|
③口口口 |----|
口①口③ |②---|
②口口口 |③---|
59
①口口口 |①---|
⑤②③④ |②-③-|
口③②口 |--④-|
口口口① |--⑤-|
60
口口口口 |----|
口口口口 |--①-|
口口①口 |②---|
口②口口 |----|
61
口①①口 |①---|
⑤④④⑤ |②---|
③口口③ |③---|
②口口② |④-⑤-|
62
口①①口 |①---|
口口④口 |----|
口③口口 |②-③-|
口口②口 |④---|
63
口①①口 |①---|
口口口口 |--②-|
口口②口 |③---|
口③口口 |----|
64
口口口口 |----|
④口口③ |--①-|
口口口口 |②-③-|
②口口① |④---|
65
口②②口 |①---|
口口口口 |②---|
口①①口 |----|
口③③口 |③---|
66
①口口① |①---|
口⑤③口 |----|
①④②① |②-③-|
口口口口 |④-⑤-|
67
口口③③ |----|
口口口口 |①---|
口口②② |②---|
口口①① |③---|
68
②③⑦口 |①-②-|
②③⑥口 |③-④-|
④①⑤口 |--⑤-|
④①口口 |⑥-⑦-|
69
口口口③ |----|
口口口口 |①---|
口①口② |②---|
④①口② |③-④-|
70
⑤⑥⑤⑥ |①-②-|
口口③① |③-④-|
②④口口 |--⑤-|
口⑥口⑥ |--⑥-|
71
口口口口 |----|
口口②② |①---|
③③口口 |②---|
①口①口 |③---|
72
⑤口口④ |①-②-|
口③口口 |③-④-|
口口②口 |⑤---|
⑥①口⑥ |⑥---|
73
口①口口 |①-②-|
口⑤④口 |③-④-|
口口口口 |⑤---|
⑥③②⑥ |⑥---|
74
①口口① |①---|
口③⑤口 |----|
口②④口 |②-③-|
口口口口 |④-⑤-|
75
口③口口 |----|
①③口口 |①---|
②口④口 |②---|
口口④口 |③-④-|
76
⑤口④① |①-②-|
口口④① |③-④-|
口②口③ |--⑤-|
⑥②口③ |--⑥-|
77
口口口① |----|
口口口口 |①---|
口口③口 |②---|
口④口② |③-④-|
78
口④口口 |①-②-|
⑤口③⑦ |③-④-|
⑥②口⑦ |--⑤-|
口口①口 |⑥-⑦-|
79
口口口口 |----|
③②①口 |①---|
③②①口 |②---|
口口口口 |③---|
80
①②③④ |①---|
口口口口 |②---|
口口口口 |③---|
①②③④ |④---|
81
口口口口 |①-②-|
⑤④③⑤ |③-④-|
口②①口 |⑤---|
口⑥⑥口 |⑥---|
82
口①①口 |①---|
④③口口 |----|
②口口口 |②-③-|
口④口④ |--④-|
83
口口口口 |----|
口口③口 |①---|
口①②口 |②---|
口口①口 |③---|
84
口④①④ |①---|
口③口③ |②---|
口口口口 |③-④-|
口⑤②⑤ |--⑤-|
85
口口口口 |----|
口口③口 |①---|
口口②口 |②---|
口口①口 |③---|
86
口④①④ |①---|
口③⑤③ |②---|
口口口口 |③-④-|
口口②口 |--⑤-|
87
口口口口 |----|
口口口口 |①-②-|
①④口口 |--③-|
②③口口 |④---|
88
口口口口 |①-②-|
口⑤口⑤ |--③-|
口口①④ |④---|
口口②③ |⑤---|
89
①②③口 |①---|
口口口口 |--②-|
①②③口 |----|
口口口口 |③---|
90
口口口① |--①-|
口口口口 |----|
口口口① |②---|
②②③③ |③---|
91
口口口口 |①---|
①①①① |----|
口口口口 |----|
口口口口 |----|
92
①①①① |①---|
口口口口 |----|
口①①口 |----|
口口口口 |----|


不確定度: 0

最終更新:2013年05月27日 20:57