GOOD LUCKY!!!!!
グッキー

ADVANCED

Level: 5
BPM: 138
Notes: 351

1
口口口口 |----|
口口口口 |----|
口口口口 |----|
口口口口 |----|
2
口②①口 |①---|
口口口口 |②---|
②③③① |③---|
口口口口 |----|
3
⑤口口⑤ |①-②-|
④口口④ |③-④-|
③口口③ |⑤---|
①②②① |----|
4
口②①口 |①---|
口口口口 |②---|
②③③① |③---|
口口口口 |----|
5
⑤口口⑤ |①-②-|
④口口④ |③-④-|
③口口③ |⑤---|
①②②① |----|
6
口②①口 |①---|
口口口口 |②---|
②③③① |③---|
口口口口 |----|
7
⑤口口⑤ |①-②-|
④口口④ |③-④-|
③口口③ |⑤---|
①②②① |----|
8
口②①口 |①---|
口口口口 |②---|
②③③① |③---|
口口口口 |----|
9
⑤口口⑤ |①-②-|
④口口④ |③-④-|
③口口③ |⑤---|
①②②① |----|
10
②口口② |①---|
口③③口 |②---|
口①①口 |③---|
口口口口 |----|
11
口②①口 |①---|
口②口① |②---|
③③口口 |③---|
③③口口 |----|
12
①口①口 |①---|
口②口② |②---|
③口③口 |③---|
口④口④ |④---|
13
口④④④ |①---|
口①口① |②---|
②口②口 |③---|
口③口③ |④---|
14
口口口口 |①---|
口①口口 |②---|
口①口口
②口②口

口口口口
③⑤③口
④口④口 |③--④|
口口口口 |--⑤-|
15
②口①口 |①-②-|
④口⑤口 |③-④-|
口③口口 |⑤---|
口口口口 |----|
16
口①④② |①---|
口口口口 |②---|
口②③① |③---|
口口③口 |④---|
17
③口口③ |①---|
口①①口 |②---|
④口口④ |③---|
②④④② |④---|
18
口②①口 |①---|
②⑤④① |②---|
口③③口 |③-④-|
口口口口 |⑤---|
19
⑤口口⑤ |①-②-|
④⑦⑥④ |③-④-|
③口口③ |⑤-⑥-|
①②②① |⑦---|
20
口②①口 |①---|
口⑤④口 |②---|
②③③① |③-④-|
口口口口 |⑤---|
21
⑤口口⑤ |①-②-|
④⑦⑥④ |③-④-|
③口口③ |⑤-⑥-|
①②②① |⑦---|
22
③口口口 |①---|
口②口口 |----|
口口口口 |②---|
口口①① |③---|
23
口口口③ |①---|
口口②口 |----|
口口口口 |②---|
①①口口 |③---|
24
③口口口 |①---|
口②口口 |----|
口口口口 |②---|
口口①① |③---|
25
口口口③ |①---|
口口②口 |----|
口口口口 |②---|
①①口口 |③---|
26
③口口口 |①---|
口②口口 |----|
口口口口 |②---|
口口①① |③---|
27
口③口③ |①---|
口口②口 |----|
口口口口 |②---|
①①口口 |③---|
28
②口②口 |①---|
口口口口 |②---|
③①③① |③---|
口口口口 |----|
29
口口口口 |①---|
②口口② |----|
口口口口 |②---|
口①①口 |----|
30
口口口口 |①---|
口口口口 |②---|
③④②① |③---|
口口口口 |④---|
31
口口口口 |①---|
口口口口 |②---|
口口口口 |③---|
③④②① |④---|
32
口口口口 |①---|
口口口口 |②---|
③④②① |③---|
口口口口 |④---|
33
口口口口 |①---|
口口口口 |②---|
口口口口 |③---|
③④②① |④---|
34
①②②① |①---|
口③③口 |②---|
口④④口 |③---|
口口口口 |④---|
35
口口口口 |①---|
④口口④ |②---|
③口口③ |③---|
②①①② |④---|
36
口③③口 |①---|
口①①口 |②---|
口②②口 |③---|
④口口④ |④---|
37
口④④口 |①---|
②③③② |②---|
①口口① |③---|
口口口口 |④---|
38
②口口② |①---|
口③③口 |②---|
口①①口 |③---|
口口口口 |----|
39
口②①口 |①---|
口②口① |②---|
③③口口 |③---|
③③口口 |----|
40
①口①口 |①---|
口②口② |②---|
③口③口 |③---|
口④口④ |④---|
41
口④口④ |①---|
口①④① |②---|
②口②口 |③---|
口③口③ |④---|
42
口口口口 |①---|
口①口口 |②---|
口①口口
②口②口

口口口口
③⑤③口
④口④口 |③--④|
口口口口 |--⑤-|
43
②口①口 |①-②-|
④口⑤口 |③-④-|
口③口口 |⑤---|
口口口口 |----|
44
④①④② |①---|
口口口口 |②---|
口②口① |③---|
③口③口 |④---|
45
③口口③ |①---|
口①①口 |②---|
④口口④ |③---|
②④④② |④---|
46
口②①口 |①---|
②⑤④① |②---|
口③③口 |③-④-|
口口口口 |⑤---|
47
⑤口口⑤ |①-②-|
④⑦⑥④ |③-④-|
③口口③ |⑤-⑥-|
①②②① |⑦---|
48
口②①口 |①---|
口⑤④口 |②---|
②③③① |③-④-|
口口口口 |⑤---|
49
②口⑦① |①-②-|
④口⑦③ |③-④-|
口⑥⑥⑤ |⑤-⑥-|
口⑥⑥口 |⑦---|


不確定度: 0

最終更新:2013年05月27日 20:14