GOOD LUCKY!!!!!
グッキー

EXTREME

Level: 8
BPM: 138
Notes: 503

1
口口口口 |----|
口口口口 |----|
口口口口 |----|
口口口口 |----|
2
③②①③ |①---|
口口口口 |②---|
口⑤④口 |③-④-|
②口口① |⑤---|
3
⑤口口⑤ |①-②-|
④②①③ |③-④-|
口⑥⑦口 |⑤-⑥-|
②④③① |⑦---|
4
③②①③ |①---|
口口口口 |②---|
口⑤④口 |③-④-|
②口口① |⑤---|
5
口口口口 |①-②-|
④②①③ |③-④-|
口口口口
②④③①

⑤口口⑤
口口⑦口
口⑥口口 |⑤-⑥-|
口口口口 |⑦---|
6
③②①③ |①---|
③口口③ |②---|
口⑤④口 |③-④-|
②①口① |⑤---|
7
口口口口 |①-②-|
④②①③ |③-④-|
口口口口
②④③①

⑤⑥口⑤
口口⑦口
口⑤⑤口 |⑤-⑥-|
口口口口 |⑦---|
8
③②①③ |①---|
③口口③ |②---|
口⑤④口 |③-④-|
②①口① |⑤---|
9
口口口口 |①-②-|
④②①③ |③-④-|
口口口口
②④③①

⑤⑤⑤⑤
口⑦⑥口
口⑤⑤口 |⑤-⑥-|
口口口口 |⑦---|
10
②口⑥② |①---|
口④④⑤ |②---|
①口口① |③--④|
口③③口 |--⑤⑥|
11
口①口口 |①-②-|
⑤④⑤口 |③-④-|
③③口口 |⑤---|
②②口口 |----|
12
口口口口 |①-②-|
口口口口 |③-④-|
⑤⑥①② |⑤-⑥-|
⑧⑦④③ |⑦-⑧-|
13
⑥①①② |①-②-|
⑤口②④ |③-④-|
⑥③③④ |⑤---|
⑤口口口 |⑥---|
14
④③口③ |①---|
口口口⑤ |②---|
④②口② |③--④|
口口①⑤ |--⑤-|
15
口④⑤③ |①-②-|
①⑦①口 |③-④-|
⑥③⑤④ |⑤---|
②口②口 |--⑥⑦|
16
①④口口 |①-②-|
②口③口 |③-④-|
口口口口
口口口口

⑧口⑧口
口⑦口口
口⑥口口 |⑤-⑥-|
口⑤口口 |⑦-⑧-|
17
口口口口 |①-②-|
③④③④ |③-④-|
②口②口
①口①口

⑤口口⑤
口口口口
⑥口口⑥ |⑤---|
口⑥⑥口 |⑥---|
18
③②①③ |①---|
口口口口 |②---|
口⑤④口 |③-④-|
②口口① |⑤---|
19
⑤口口⑤ |①-②-|
④②①③ |③-④-|
口⑥⑦口 |⑤-⑥-|
②④③① |⑦---|
20
③②①③ |①---|
口口口口 |②---|
口⑤④口 |③-④-|
②口口① |⑤---|
21
口口口口 |①-②-|
④②①③ |③-④-|
口口口口
②④③①

⑤口⑧⑤
口口⑦口
口⑥口口 |⑤-⑥-|
口口口口 |⑦-⑧-|
22
⑤口口口 |①--②|
⑥①口① |--③-|
⑦④②④ |④-⑤-|
口③口③ |⑥-⑦-|
23
⑦⑤②⑥ |①-②③|
④③口① |--④-|
口⑤口口 |⑤---|
④口口口 |⑥-⑦-|
24
口③⑤⑤ |①--②|
⑥③④⑤ |--③-|
⑦②②口 |④-⑤-|
①口口① |⑥-⑦-|
25
⑤口⑤口 |①-②③|
口④口口 |④-⑤-|
口口③口
①②口口

口⑥口⑥
口口口口
口⑧口口 |⑥---|
口⑦口口 |⑦-⑧-|
26
口②口口 |①--②|
②口①口 |--③-|
口口⑤④ |④-⑤-|
口⑦⑥③ |⑥-⑦-|
27
②口③口 |①-②③|
①④①口 |--④-|
口口口口
口口口口

口口口口
口口⑦口
口口⑥⑦ |⑤---|
口⑤⑥口 |⑥-⑦-|
28
口②①① |①---|
②口口口 |②-③-|
口②口口
②口③③

口口口⑤
口口⑤⑤
口⑥④④ |④---|
⑥⑥口口 |⑤-⑥-|
29
③①口口 |①--②|
①③口口 |--③-|
口口④② |④---|
口口②④ |----|
30
⑥口口⑤ |①-②-|
口口口⑦ |③-④-|
④口口① |⑤--⑥|
口③②⑦ |--⑦-|
31
口④①⑦ |①--②|
③②②⑥ |--③-|
口④①⑤ |④--⑤|
③口口口 |⑥-⑦-|
32
口口口口 |①-②-|
口③③④ |③-④-|
口②②口
①口口①

口口口口
⑤口口口
口⑦⑦口 |⑤--⑥|
口⑥⑥口 |--⑦-|
33
④①①⑤ |①-②③|
口⑧④口 |--④-|
③⑥口③ |⑤--⑥|
口⑦口② |⑦-⑧-|
34
口口①③ |①---|
口口①③ |②---|
口口口口 |③---|
口口②④ |④---|
35
①③③口 |①---|
①③③口 |②---|
口口口口 |③---|
②④④口 |④---|
36
④口口④ |①---|
⑤③③⑤ |②---|
口①①口 |③---|
②口口② |④-⑤-|
37
口③③口 |①-②-|
口④④口 |③-④-|
①口口①
口②②口

⑥口口⑥
⑦口口⑦
⑧⑤⑤⑧ |⑤-⑥-|
口⑧⑧口 |⑦-⑧-|
38
②口口② |①---|
口①①口 |②---|
口口口口
口口口口

口口口口
口④④⑤
口口口口 |③--④|
口③③口 |--⑤-|
39
口①①口 |①-②-|
⑤④⑤口 |③-④-|
③③口口 |⑤---|
②②口口 |----|
40
口口口口 |①-②-|
口口口口 |③-④-|
④③②①
口③②口

⑥口口⑤
口⑦口口
口口⑧口 |⑤-⑥-|
口口口口 |⑦-⑧-|
41
⑤③口口 |①-②-|
④口②① |③-④-|
口⑥口⑥ |⑤---|
口口⑥口 |⑥---|
42
口③口③ |①---|
口④①⑤ |②---|
②口②口 |③--④|
口④口⑤ |--⑤-|
43
口④⑤③ |①-②-|
①⑦①口 |③-④-|
⑥③⑤④ |⑤---|
②口②口 |--⑥⑦|
44
①④口口 |①-②-|
②口③口 |③-④-|
口口口口
口口口口

⑧口⑧口
口⑦口口
口⑥口口 |⑤-⑥-|
口⑤口口 |⑦-⑧-|
45
口口口口 |①-②-|
③④③④ |③-④-|
②口②口
①口①口

⑤口口⑤
口口口口
⑥口口⑥ |⑤---|
口⑥⑥口 |⑥---|
46
③②①③ |①---|
口口口口 |②---|
口⑤④口 |③-④-|
②口口① |⑤---|
47
⑤口口⑤ |①-②-|
④②①③ |③-④-|
口⑥⑦口 |⑤-⑥-|
②④③① |⑦---|
48
③②①③ |①---|
口⑤口口 |②---|
口口④口 |③-④-|
②口口① |⑤---|
49
⑤口⑦⑤ |①-②-|
口口⑦口 |③-④-|
④⑥⑥③ |⑤-⑥-|
②⑥⑥① |⑦---|


不確定度: 0

最終更新:2013年05月27日 20:13