がんばれよ
TEE

ADVANCED

Level: 7
BPM: 146
Notes: 413

1
口口口口 |----|
口口口口 |----|
口口口口 |----|
口口口口 |----|
2
口口口口 |①---|
口口口口 |----|
口口口口 |----|
口①①口 |----|
3
口口口口 |①---|
①③口① |②-③-|
口②口口 |----|
口口口口 |----|
4
口口口口 |①---|
口口口口 |----|
口口口口 |----|
口①①口 |----|
5
口口口口 |①---|
①口③① |②-③-|
口口②口 |----|
口口口口 |----|
6
口口口口 |①---|
口口口口 |----|
口口口口 |----|
口①①口 |----|
7
口口口口 |①---|
①③口① |②-③-|
口②口口 |----|
口口口口 |----|
8
口口口口 |①---|
口口口口 |----|
口①口口 |----|
口口①口 |----|
9
口口口口 |①---|
②口口① |----|
①口口② |②---|
口口口口 |----|
10
口口口口 |①---|
口口口口 |----|
口口口口 |----|
①口口① |----|
11
口口⑤口 |①---|
①③④① |②-③-|
口②口口 |--④-|
口口口口 |⑤---|
12
口口口口 |①---|
口口口口 |----|
口口口口 |----|
口①①口 |----|
13
口口⑤口 |①---|
①③④① |②-③-|
口②口口 |--④-|
口口口口 |⑤---|
14
口口口口 |①---|
口口口口 |----|
口口口口 |----|
①口口① |----|
15
口口⑤口 |①---|
①③④① |②-③-|
口②口口 |--④-|
口口口口 |⑤---|
16
口口口口 |①---|
口口口口 |----|
口①口口 |----|
口口①口 |----|
17
口口口口 |①---|
①口口② |----|
②口口① |②---|
口口口口 |----|
18
口②口口 |①---|
口口③口 |----|
口口口口 |②--③|
①④④① |--④-|
19
①口口① |----|
口②口口 |----|
口③口口 |①--②|
口口口口 |--③-|
20
口②②口 |①---|
②口口② |----|
①口口① |----|
①口口① |--②-|
21
口②②口 |----|
口①口口 |----|
口口①口 |①---|
口口口口 |②---|
22
④口口④ |①---|
口口③口 |----|
①口②① |--②-|
口①①口 |③-④-|
23
口口②口 |----|
口口口口 |----|
口①口口 |①--②|
口口口口 |----|
24
口口口口 |①---|
①口口① |----|
口口口口 |----|
口口口口 |----|
25
口口口口 |①-②-③-|
①②③口 |④-⑤-⑥-|
口④⑤口 |⑦---|
口⑥⑦口 |----|
26
①口口口 |--①-|
口④⑤口 |--②-|
③口口② |③-④-|
口⑥口口 |⑤-⑥-|
27
③口口③ |①--②|
②⑥⑤② |--③-|
口口口口 |--④-|
①④口① |⑤-⑥-|
28
②③口④ |①-②-|
口口口口 |③-④-|
口口口口
口口①口

口口口口
口口⑤口
⑥⑦口口 |⑤-⑥⑦|
口口⑧口 |--⑧-|
29
口口③② |①-②③|
④①口口 |--④-|
口口口口
口口口口

口口口口
口⑧⑦⑤
口口口口 |⑤-⑥-|
口⑥口口 |⑦-⑧-|
30
口口口口 |①-②-|
②口口③ |③-④-|
口口口口
口④①口

口口口口
口⑦⑥口
口⑤口口 |⑤-⑥⑦|
口口⑧口 |--⑧-|
31
③③④④ |①--②|
②⑦⑥② |--③-|
①口口① |④-⑤-|
口⑤口口 |⑥-⑦-|
32
口口口口 |①-②-|
③⑦⑧⑤ |③-④-|
②口口④ |⑤-⑥-|
口口①⑥ |⑦-⑧-|
33
口口口口 |①---|
①口口② |②---|
口①②口 |③---|
③③④④ |④---|
34
口口口口 |--①-|
①②口③ |②-③-|
⑤⑥④口 |④-⑤⑥|
口口⑦口 |--⑦-|
35
口口②口 |①--②|
口①口口 |--③-|
③口口口
口口口口

口口口口
口⑦⑥口
口口口④ |④-⑤-|
口⑤口口 |⑥-⑦-|
36
口⑥⑦口 |①-②-|
②口⑤③ |③-④-|
口④⑧口 |⑤-⑥⑦|
口口①口 |--⑧-|
37
口③④口 |①--②|
口⑥⑦口 |--③-|
②口口② |④-⑤-|
①口⑤① |⑥-⑦-|
38
②③口口 |①-②-|
口口口④ |③-④-|
口口口口
口①口口

口口口口
口⑤口口
口口口口 |⑤--⑥|
⑦⑥口口 |--⑦-|
39
口口口口 |①-②-|
口④口⑤ |③-④-|
口②③口 |--⑤-|
口⑥口① |--⑥-|
40
口⑧口口 |①-②-|
口⑦④⑤ |③-④-|
①⑥③口 |⑤-⑥-|
口口②口 |⑦-⑧-|
41
②口口② |①--②|
口口③口 |--③-|
①③口① |--④-|
口④④口 |----|
42
①口①口 |--①-|
口②③④ |②-③-|
⑤口⑦口 |④-⑤-|
口口口⑥ |⑥-⑦-|
43
⑤④③② |①---|
口⑦口口 |②-③-|
⑥口口口 |④-⑤-|
口①口口 |⑥-⑦-|
44
口口口口 |①-②-|
口口口⑦ |③-④-|
⑧口①⑥ |⑤-⑥-|
⑤④②③ |⑦-⑧-|
45
口口口口 |①-②-|
①口口口 |③-④-|
口④口口
口②③口

口口口口
⑧⑥⑦口
口口⑤口 |⑤-⑥-|
口口口口 |⑦-⑧-|
46
⑤⑤①口 |①-②-|
口口口④ |③-④⑤|
②口⑥③ |--⑥-|
口口⑦口 |⑦---|
47
④口口口 |--①-|
④口口③ |②-③④|
①口⑤② |--⑤-|
口口⑥口 |⑥---|
48
口①③口 |①-②-|
口⑦⑤口 |③-④-|
口②④口 |⑤-⑥-|
⑧口口⑥ |⑦-⑧-|
49
⑤③口⑤ |①-②-|
②⑥⑥⑧ |③-④-|
①口④口 |⑤-⑥-|
⑦口口⑦ |⑦-⑧-|
50
③口口口 |①--②|
②⑥③口 |--③-|
①④②⑤ |--④-|
口口①口 |⑤-⑥-|
51
口口①口 |①-②-|
⑤口②⑤ |③-④-|
④口⑥口 |⑤---|
口③口口 |⑥---|
52
口口口③ |①--②|
⑥③口② |--③-|
⑤②④① |--④-|
口①口口 |⑤-⑥-|
53
口①口口 |①-②-|
口⑤口⑤ |③-④-|
口②⑥④ |⑤---|
口口口③ |⑥---|
54
⑤④④口 |①--②|
②口口③ |--③-|
⑤口口口 |④---|
口①①口 |⑤---|
55
⑤④④口 |①--②|
②口口③ |--③-|
⑤口口口 |④---|
口①①口 |⑤---|
56
口口口口 |--①②|
口①②③ |③-④⑤|
⑥⑨⑤⑧ |-⑥-⑦|
口④口⑦ |⑧-⑨-|
57
口口口口 |①---|
①①②② |②---|
④④③③ |③---|
口口口口 |④---|
58
③口口口 |①--②|
②⑥③口 |--③-|
口④②⑤ |--④-|
①①口口 |⑤-⑥-|
59
口口①口 |①-②-|
⑤口②⑤ |③-④-|
④口⑥口 |⑤---|
口③口口 |⑥---|
60
口口口③ |①--②|
⑥③口② |--③-|
⑤②④① |--④-|
口①口口 |⑤-⑥-|
61
口①口口 |①-②-|
口⑤口⑤ |③-④-|
口②⑥④ |⑤---|
口口口③ |⑥---|
62
⑤④④口 |①--②|
②口口③ |--③-|
⑤口口口 |④---|
口①①口 |⑤---|
63
⑤④④口 |①--②|
②口口③ |--③-|
⑤口口口 |④---|
口①①口 |⑤---|
64
⑤口口口 |①--②|
口④④口 |--③-|
⑤③③口 |④---|
①口口② |⑤---|
65
口④④口 |①--②|
口③③口 |--③-|
口口口口 |④---|
口①②口 |----|


不確定度: 0

最終更新:2013年05月27日 20:41