がんばれよ
TEE

EXTREME

Level: 8
BPM: 146
Notes: 563

1
口口口口 |----|
口口口口 |----|
口口口口 |----|
口口口口 |----|
2
口口口口 |①---|
①口口口 |②---|
口口口口 |③---|
①②③④ |④---|
3
③口口口 |①---|
①口口⑤ |②-③-|
②口③④ |--④-|
①口②口 |⑤---|
4
口口口口 |①---|
①口口口 |②---|
口口口口 |③---|
①②③④ |④---|
5
③口口口 |①---|
①口口⑤ |②-③-|
②口③④ |--④-|
①口②口 |⑤---|
6
口口口口 |①---|
①口口口 |②---|
口口口口 |③---|
①②③④ |④---|
7
③口口口 |①---|
①口口⑤ |②-③-|
②口③④ |--④-|
①口②口 |⑤---|
8
口口口口 |①---|
口口口口 |②---|
①口口口 |③---|
①②③④ |④---|
9
口口口口 |①---|
①口③口 |②---|
口口口口 |③---|
①②③④ |④---|
10
①口口口 |①---|
口口口口 |②---|
①②③④ |③---|
口口口口 |④---|
11
①口口① |①---|
⑤②口⑤ |②-③-|
口口③口 |--④-|
④口口④ |⑤---|
12
①口口口 |①---|
口口口口 |②---|
①②③④ |③---|
口口口口 |④---|
13
①口口① |①---|
⑤②口⑤ |②-③-|
口口③口 |--④-|
④口口④ |⑤---|
14
①口口口 |①---|
口口口口 |②---|
①②③④ |③---|
口口口口 |④---|
15
①口口① |①---|
⑤②口⑤ |②-③-|
口口③口 |--④-|
④口口④ |⑤---|
16
①口口口 |①---|
口口口口 |②---|
①②③④ |③---|
口口口口 |④---|
17
口口口口 |①---|
①④③口 |②---|
①②③⑤ |③-④-|
口②口⑤ |⑤---|
18
④口④口 |①---|
口口口口 |②---|
③⑥③口 |③--④|
①②③⑤ |⑤-⑥-|
19
口口③口 |①---|
④口④③ |②---|
③⑥口口 |③--④|
①②口⑤ |⑤-⑥-|
20
口口口口 |①---|
⑤口⑤口 |②---|
口口口① |③---|
①②③④ |④-⑤-|
21
口口口口 |①---|
④③口口 |②---|
口口口口 |③---|
①②③④ |④---|
22
口口口⑥ |①---|
口口口口 |②---|
①④口⑤ |③--④|
①②③⑤ |⑤-⑥-|
23
口口口口 |①---|
口④口口 |②---|
口口③口 |③--④|
①②③⑤ |⑤---|
24
口口口口 |①---|
①口口① |②---|
口口口口 |③---|
①②③④ |④---|
25
④①①④ |①-②-③-|
⑤②②⑤ |④-⑤-⑥-|
⑥③③⑥ |⑦---|
口⑦⑦口 |----|
26
①口⑤口 |--①-|
①④口口 |--②-|
口③⑥口 |③-④-|
口口②口 |⑤-⑥-|
27
③③口⑤ |①--②|
口口⑤口 |--③-|
②②⑥口 |--④-|
①①④口 |⑤-⑥-|
28
②③④口 |①-②-|
⑥口口① |③-④-|
⑦⑤⑧口 |⑤-⑥⑦|
口口口① |--⑧-|
29
①口口⑦ |①-②③|
⑤②⑦口 |--④-|
口③⑧口 |⑤-⑥-|
④口⑥口 |⑦-⑧-|
30
③口口口 |①-②-|
口⑦⑥① |③-④-|
②⑤口口 |⑤-⑥⑦|
⑧口④① |--⑧-|
31
口③口口 |①--②|
口口口口 |--③-|
②口①口
口口口口

口口口⑥
口④⑥口
口口⑦口 |④-⑤-|
口口⑤口 |⑥-⑦-|
32
②③口口 |①-②-|
口⑤⑦① |③-④-|
口⑧口口 |⑤-⑥-|
口④⑥① |⑦-⑧-|
33
②口②⑤ |①---|
口③⑤口 |②---|
①口⑥① |③-④-|
口⑤④口 |⑤-⑥-|
34
③口口口 |①-②-|
口⑦⑥① |③-④-|
②⑤口口 |⑤-⑥⑦|
⑧口④① |--⑧-|
35
①①口口 |①--②|
口③口口 |--③-|
口口②②
口口口口

口口口⑥
口口⑥口
口④⑦口 |④-⑤-|
口口⑤口 |⑥-⑦-|
36
②③④口 |①-②-|
⑥口口① |③-④-|
⑦⑤⑧口 |⑤-⑥⑦|
口口口① |--⑧-|
37
①口⑤口 |①--②|
④口口口 |--③-|
口②⑦⑥ |④-⑤-|
③口⑥口 |⑥-⑦-|
38
口②口口 |①-②-|
口口③① |③-④-|
口口口口
口④口①

口口口口
⑤口口⑥
口口口口 |⑤--⑥|
⑦口口口 |--⑦-|
39
口口④口 |①-②-|
⑤口口⑥ |③-④-|
⑥③口⑤ |--⑤-|
口②②① |--⑥-|
40
口③⑦口 |①-②-|
口②⑥口 |③-④-|
口①⑤口 |⑤-⑥-|
⑧口④口 |⑦-⑧-|
41
②口口② |①--②|
③口口③ |--③-|
口④④口 |--④-|
口口⑤① |⑤---|
42
①⑩⑩① |--①-|
⑪②③⑪ |②③④⑤|
⑧④⑤⑨ |⑥⑦⑧⑨|
口⑥⑦口 |⑩-⑪-|
43
口⑪⑪口 |①---|
⑩②③⑨ |②③④⑤|
⑧④⑤口 |⑥⑦⑧-|
①⑥⑦① |⑨⑩⑪-|
44
口口口口 |①-②-|
口③④口 |③④-⑤|
⑤口口②
①口口①

⑨⑩口⑧
口⑪口⑦
口⑥口口 |⑥-⑦⑧|
口口口口 |-⑨⑩⑪|
45
口口口口 |①-②③|
④口①口 |④⑤⑥⑦|
⑦⑤⑥口
口③②口

口⑨⑩口
口⑪⑫口
口口口⑧ |⑧⑨⑩⑪|
⑬口口口 |⑫-⑬-|
46
②⑤口口 |①-②-|
②⑤口③ |③-④⑤|
口口④⑥ |--⑥-|
口口⑦① |⑦---|
47
①④口口 |--①-|
①④口② |②-③④|
口口③⑤ |--⑤-|
口口⑥口 |⑥---|
48
③口③口 |①-②-|
①④①④ |③-④-|
②口②口
口口口口

口口口口
⑦口⑦口
口⑤口⑤ |⑤-⑥-|
⑥⑧⑥⑧ |⑦-⑧-|
49
①口①口 |①-②-|
口③口③ |③-④-|
②④②④
口口口口

⑦口口⑦
⑤口⑤口
口口⑧口 |⑤-⑥-|
⑥口⑥口 |⑦-⑧-|
50
口③③口 |①--②|
②口⑥③ |--③-|
①②⑤② |--④-|
④①口① |⑤-⑥-|
51
①口口① |①-②-|
口②口④ |③-④-|
口口口口
口③口口

口⑤口口
⑤⑦⑥口
口口口口 |⑤---|
口口口口 |⑥-⑦-|
52
口③③口 |①--②|
③⑥口② |--③-|
②⑤②① |--④-|
①口①④ |⑤-⑥-|
53
①口⑤① |①-②-|
④口②⑤ |③-④-|
口口⑥口 |⑤---|
口口③口 |⑥---|
54
⑤④口④ |①--②|
口②口口 |--③-|
⑤③口③ |④---|
①口口① |⑤---|
55
④口④⑤ |①--②|
②口②口 |--③-|
口口③⑤ |④---|
①口口① |⑤---|
56
口口口口 |--①②|
⑧①②⑥ |③-④⑤|
⑤③口⑨ |-⑥-⑦|
口⑦④口 |⑧-⑨-|
57
①①②② |①---|
口口口口 |②---|
口口口口 |③---|
④④③③ |④---|
58
②③③口 |①--②|
①②⑥② |--③-|
口①⑤① |--④-|
④口口口 |⑤-⑥-|
59
①口口① |①-②-|
口②口④ |③-④-|
口口口口
口③口口

口⑤口口
⑤⑦⑥口
口口口口 |⑤---|
口口口口 |⑥-⑦-|
60
口③③④ |①--②|
③⑤口② |--③-|
②⑥②① |--④-|
①口①口 |⑤-⑥-|
61
①口⑤口 |①-②-|
④口②⑤ |③-④-|
口口⑥① |⑤---|
口口③口 |⑥---|
62
⑤④口④ |①--②|
口②口口 |--③-|
⑤③口③ |④---|
①口口① |⑤---|
63
④口④⑤ |①--②|
②口②口 |--③-|
口口口⑤ |④---|
①口③① |⑤---|
64
⑤口④口 |①--②|
①①①口 |--③-|
⑤①①口 |④---|
③口口② |⑤---|
65
④④④④ |①--②|
①①①口 |--③-|
口①①口 |④---|
③口口② |----|


不確定度: 0

最終更新:2013年05月27日 20:40