FANTASTIC★DREAMER feat.SO-TA,Rhyzm Horse,Yoonji
MAYA feat.SO-TA,Rhyzm Horse,Yoonji

EXTREME

Level: 9
BPM: 128
Notes: 796

1
口口口口 |----|
口口口口 |----|
口口口口 |----|
口口口口 |----|
2
口口口② |①-②-|
口④口口 |③-④⑤|
口口⑤口
③①①口

口⑥⑦口
⑥口口⑦
口口口⑧ |--⑥-|
口口⑧口 |⑦-⑧-|
3
口④⑥① |①-②-|
口⑦⑤⑥ |③-④⑤|
⑦③③⑧ |--⑥-|
②口⑧口 |⑦-⑧-|
4
①⑥⑤口 |--①-|
⑥口③⑤ |②-③④|
⑦④口口 |--⑤-|
口⑦口② |⑥-⑦-|
5
①⑥④口 |①-②-|
⑥⑤⑦口 |③-④⑤|
⑧③③⑦ |--⑥-|
口⑧口② |⑦-⑧-|
6
①口口① |--①-|
④口口③ |②-③④|
口口口口
②④③②

口⑥⑤⑦
口⑤⑥口
⑦口口口 |--⑤-|
口口口口 |⑥-⑦-|
7
①口口口 |①-②-|
②口口③ |③-④⑤|
口④⑤①
④③②⑤

⑧⑥⑥⑧
口⑧⑧口
⑦口口⑦ |--⑥-|
口口口口 |⑦-⑧-|
8
⑦③③⑦ |--①-|
①口口② |②-③④|
⑤④④⑥ |--⑤-|
⑤①②⑥ |⑥-⑦-|
9
口①②口 |①-②-|
①口口② |③-④⑤|
④③③⑤
口④⑤口

口口口口
⑦⑥⑥⑧
口口口口 |--⑥-|
⑦口口⑧ |⑦-⑧-|
10
②口口② |①--②|
口口口口 |----|
口①①口 |----|
口口口口 |----|
11
④③③② |----|
④④②② |--①-|
①④②① |②-③-|
⑤口口⑤ |④-⑤-|
12
口口口口 |--①-|
口口口口 |----|
①口口① |----|
口①①口 |----|
13
②③③④ |----|
②②④④ |--①-|
①②④① |②-③-|
⑤口口⑤ |④-⑤-|
14
口口口口 |--①-|
口口口口 |----|
①口口① |----|
口①①口 |----|
15
④③③② |----|
④④②② |--①-|
①④②① |②-③-|
⑤口口⑤ |④-⑤-|
16
口口口口 |--①-|
口口口口 |----|
①口口① |----|
口①①口 |----|
17
③④④⑤ |①---|
③③⑤⑤ |--②-|
②③⑤② |③-④-|
⑥①①⑥ |⑤-⑥-|
18
②口口口 |--①-|
口口口口 |----|
①②口① |----|
口①①口 |--②-|
19
口口口② |--①-|
口①口口 |----|
口口②口 |----|
①口口口 |--②-|
20
②口口口 |--①-|
口口①口 |----|
口②口口 |----|
口口口① |--②-|
21
口④口② |--①-|
口①③口 |--②-|
④口②口 |--③-|
①口口③ |--④-|
22
④口①口 |--①-|
②口口③ |--②-|
口④口① |--③-|
口②③口 |--④-|
23
口④④① |①-②-|
口②③口 |③-④-|
④口①④
②口口③

⑨口口⑧
⑤⑪口⑫
口⑦⑩口 |⑤⑥⑦⑧|
口口⑥口 |⑨⑩⑪⑫|
24
口②口口 |①-②-|
②口口口 |③-④-|
④口口③
①④③①

口口⑤口
⑧口⑧⑤
口⑥⑦口 |⑤-⑥⑦|
口口口口 |-⑧--|
25
④口⑥口 |①②③-|
口⑤口⑦ |④⑤⑥⑦|
口口口口
口③②①

⑪口⑬⑪
⑨⑫⑩口
⑧⑨⑧⑩ |⑧-⑨⑩|
口口口口 |-⑪⑫⑬|
26
口③口口 |①-②③|
口口口口 |④-⑤-|
⑤口②⑤
①口口④

⑦口口⑥
⑧⑨口口
口⑩⑪口 |⑥⑦⑧⑨|
口口⑫⑬ |⑩⑪⑫⑬|
27
③口②② |①-②-|
口③④② |③-④-|
①口口④
①①口口

⑧⑤口⑧
⑤口口⑦
⑥口⑦口 |⑤-⑥⑦|
⑥口口⑤ |-⑧--|
28
口口口口 |①-②③|
②①①口 |-④⑤-|
④口口③
口口口⑤

⑧口口口
⑩口口⑦
口⑥⑥⑨ |⑥-⑦⑧|
口口口口 |-⑨⑩-|
29
口①④口 |①②③④|
口⑤⑥口 |-⑤⑥-|
口口口口
口③②口

⑨口口⑦
⑪口口⑫
口口口口 |⑦⑧⑨⑩|
⑧⑪⑫⑩ |-⑪⑫-|
30
口①④口 |①②③-|
口⑤②口 |④⑤⑥⑦|
⑥口口③
口⑦口口

⑧⑪口⑧
⑩口⑪⑩
口⑪口口 |⑧-⑨-|
⑨口口⑨ |⑩-⑪-|
31
②口①② |①-②-|
口①口口 |③---|
③口①③
口③③口

口口口⑦
⑥口⑦⑤
口⑥⑤口 |④-⑤⑥|
④口口④ |⑦---|
32
①②口口 |①-②-|
③⑧口③ |③-④-|
⑤④口⑦ |⑤-⑥-|
⑦⑥口⑤ |⑦-⑧-|
33
①⑤②① |①-②-|
③口⑥③ |③-④-|
⑤④⑧口 |⑤-⑥-|
⑦口口⑦ |⑦-⑧-|
34
①②口口 |①-②-|
③⑧口③ |③-④-|
⑤④口⑦ |⑤-⑥-|
⑦⑥口⑤ |⑦-⑧-|
35
①口②① |①-②-|
③口口③ |③-④-|
口④口口
口口口口

口⑧口⑥
口口口口
⑤口⑦口 |⑤-⑥-|
⑦口口⑤ |⑦-⑧-|
36
①口口口 |①-②-|
③口口③ |③-④-|
口②口口
口④口口

口口⑦⑤
口⑥口口
⑤⑧口口 |⑤-⑥-|
⑦口口口 |⑦-⑧-|
37
①⑤口⑧ |①-②-|
③口②⑥ |③-④-|
⑤⑦④① |⑤-⑥-|
⑦口口③ |⑦-⑧-|
38
①口①口 |①---|
③①③口 |②-③-|
口③②口
口②口②

口④口口
口口口⑤
④口口口 |--④-|
⑥⑥⑤口 |⑤-⑥-|
39
①口②② |①-②-|
①④④口 |③-④-|
口④④③ |----|
口口口③ |----|
40
口②口口 |--①-|
口①口③ |②③④-|
口①①口
④口①口

⑧口口⑦
⑥口口⑨
⑤口口⑤ |⑤-⑥⑦|
口口口口 |-⑧⑨-|
41
⑦口口⑥ |-①-②|
⑤①②⑧ |③④-⑤|
⑨①②④ |⑥-⑦⑧|
③口口⑩ |-⑨⑩-|
42
口①①口 |--①-|
口口④④ |②-③④|
③③口口
口②②口

⑤⑦口⑤
⑦口口口
口口口口 |-⑤-⑥|
⑥口口⑥ |--⑦-|
43
口口①口 |①-②-|
口④⑤① |③-④⑤|
③④⑤②
口③②口

⑧口口⑧
⑦口口⑦
⑧口口⑧ |-⑥-⑦|
⑥口口⑥ |--⑧-|
44
④①口口 |--①-|
④口①口 |②③-④|
口①口口
口②①③

口⑦口⑦
口⑧口⑤
⑥⑧口⑤ |⑤⑥-⑦|
⑥口⑨⑨ |-⑧⑨-|
45
口②①② |--①-|
①口口口 |②-③-|
③口①口
①③口口

⑤口口⑧
⑦⑤④⑥
口⑦⑧④ |④-⑤⑥|
口口口⑥ |-⑦⑧-|
46
⑦③⑥⑦ |--①②|
④⑤⑥④ |③-④-|
口⑤⑥② |⑤⑥-⑦|
①⑤口口 |----|
47
③口口③ |①-②-|
①④⑤① |③-④⑤|
口④⑤口
口②②口

口⑥⑥口
⑥口口⑥
⑥口口⑥ |-⑥--|
口口口口 |----|
48
①口④口 |--①-|
①口④口 |②-③④|
口③口②
口③口②

口⑤口⑤
⑦口口⑦
口口口口 |--⑤-|
⑥口⑥口 |⑥-⑦-|
49
③③③③ |①-②-|
④③③④ |③--④|
②②①①
口②口①

口口口口
口口口口
⑥口口⑤ |--⑤-|
口口⑦口 |⑥-⑦-|
50
③口口③ |--①-|
①口口② |②-③-|
口①②口
口口口口

口口口口
口口口口
口⑤⑥口 |--④-|
⑤④④⑥ |⑤-⑥-|
51
口①①口 |①--②|
口口口口 |--③-|
③口口③
口②②口

⑥⑤⑤④
⑥⑥④④
口⑥④口 |④-⑤-|
⑦口口⑦ |⑥-⑦-|
52
③④④⑤ |--①-|
③③⑤⑤ |--②-|
②③⑤② |③-④-|
⑥①①⑥ |⑤-⑥-|
53
口口口口 |--①-|
口口口口 |----|
①口口①
口①①口

口④③口
口②口②
口口③④ |--②-|
口口口口 |③-④-|
54
口口口① |①-②③|
②口③口 |--④-|
④①④口
②口③口

⑥⑧⑦口
口⑤口⑧
口⑥口⑦ |⑤-⑥-|
口⑤口口 |⑦-⑧-|
55
②口口② |①--②|
①③③口 |--③-|
口口①口
口口口口

口口口口
④口口⑤
④口口⑤ |--④-|
口④⑤口 |⑤---|
56
口口①口 |--①-|
③③①口 |②-③④|
②②④④
口口口口

⑤⑦⑦⑤
口口⑥口
口口口口 |--⑤-|
口⑥口口 |⑥-⑦-|
57
口⑤⑤口 |①-②-|
③口口口 |③-④⑤|
②③②④
①口④①

⑥口口口
口⑥口⑦
口⑧⑦口 |--⑥-|
⑧口口口 |⑦-⑧-|
58
③①②③ |--①-|
④口口④ |②-③-|
①口⑥② |--④-|
口⑤⑥⑤ |⑤-⑥-|
59
②口口口 |①--②|
②①口口 |--③-|
③①口③
口口口口

⑥⑤⑤④
⑥⑥④④
口⑥④口 |④-⑤-|
⑦口口⑦ |⑥-⑦-|
60
③④④⑤ |--①-|
③③⑤⑤ |--②-|
②③⑤② |③-④-|
⑥①①⑥ |⑤-⑥-|
61
口口口口 |--①-|
口口口口 |----|
①口口①
口①①口

②口口口
口口口口
④口口③ |--②-|
口口口口 |③-④-|
62
口④④① |①-②③|
②②③③ |--④-|
⑤②③⑥ |⑤-⑥-|
口⑦⑧口 |⑦-⑧-|
63
①口口① |①--②|
②口口② |--③-|
④③③⑤ |--④-|
④④⑤⑤ |⑤---|
64
口口口口 |①---|
口①①口 |----|
口①①口 |----|
口口口口 |----|

不確定度: 0

最終更新:2014年07月31日 23:52