ESCAPE
Moon Child

ADVANCED

Level: 5
BPM: 165
Notes: 267

全程BPM在165附近飄忽不定
1
口口口口 |----|
口口口口 |----|
口口口口 |----|
口口口口 |----|
2
口口口口 |①---|
①②口口 |--②-|
口口口口 |----|
口口口口 |----|
3
口口口口 |①---|
口口口口 |--②-|
口口①② |----|
口口口口 |----|
4
口口口口 |①---|
①②口口 |--②-|
口口口口 |----|
口口口口 |----|
5
③④口口 |①---|
口口口口 |--②-|
口⑤①② |--③-|
口口口口 |④-⑤-|
6
口口口② |①-②-|
口口①④ |----|
口口③口 |----|
口口口口 |③-④-|
7
口口②口 |----|
口口口口 |----|
①口口口 |--①-|
口口口口 |--②-|
8
口口口口 |----|
口口口口 |----|
口口口口 |----|
口口口口 |----|
9
①②口口 |----|
口口口口 |----|
口③口口 |--①-|
口口口口 |②-③-|
10
口④口② |①-②-|
③口①口 |----|
口口口口 |----|
口口口口 |③-④-|
11
口口口② |----|
口口口口 |----|
口①口口 |--①-|
口口口口 |--②-|
12
口口①口 |----|
口口口口 |--①-|
口口口口 |----|
口口口口 |----|
13
口口口口 |----|
口口口口 |----|
口口口口 |----|
口①口口 |--①-|
14
口口口口 |①-②-|
口②⑤口 |--③-|
①口④口 |--④-|
口口③口 |--⑤-|
15
口②①② |--①-|
口口口口 |--②-|
口口口口
口口口口

③口④口
口口口口
口口口口 |--③-|
口口口口 |--④-|
16
口③口口 |①-②-|
④口④① |--③-|
口⑤②口 |--④-|
口口口口 |--⑤-|
17
口口口口 |--①-|
口口口口 |--②-|
口口口口
口①②口

口口口口
口口口口
口口口口 |--③-|
口④口③ |--④-|
18
口口⑥口 |①-②-|
口②口⑤ |--③-|
①口④口 |--④-|
口口③口 |⑤-⑥-|
19
②①口口 |--①-|
口口口③ |--②-|
口口④口 |--③-|
口⑤口口 |④-⑤-|
20
口口口口 |----|
口口口口 |----|
口口口口 |----|
口口口口 |----|
21
口口口口 |----|
口口口口 |----|
口口口口 |----|
口①口口 |--①-|
22
口口⑥口 |①-②-|
口②口⑤ |--③-|
①口④口 |--④-|
口口③口 |⑤-⑥-|
23
②①口口 |--①-|
③口口口 |--②-|
口④口口 |--③-|
⑤口口口 |④-⑤-|
24
口口②口 |--①-|
口口③口 |--②-|
口④①④ |--③-|
口口口口 |--④-|
25
口口口口 |--①-|
口口口口 |--②-|
口④口口 |--③-|
③②①口 |--④-|
26
口②⑥口 |①-②-|
①口口⑤ |--③-|
口口④口 |--④-|
口口③口 |⑤-⑥-|
27
口①口口 |①-②-|
②④⑤口 |③---|
口③口口 |④-⑤-|
⑥口口口 |--⑥-|
28
口口口口 |①-②-|
口口口③ |--③-|
口①口口 |----|
口口②口 |----|
29
④口口④ |----|
口③口口 |①---|
口口②口 |②-③-|
①口口口 |--④-|
30
口口口口 |----|
口口口口 |----|
口口口口 |----|
口口口口 |----|
31
口口②口 |----|
④口口④ |①---|
①口③口 |②---|
口口口口 |③-④-|
32
口口口口 |----|
口口口口 |----|
口口口口 |----|
口口口口 |----|
33
④口口④ |----|
口②口口 |①---|
口口③口 |②-③-|
①口口口 |--④-|
34
口口口口 |----|
①口口① |----|
口口口口 |①---|
口口口口 |----|
35
口①①口 |①---|
口②②口 |②---|
口③③口 |③---|
口④④口 |④---|
36
口②②口 |①---|
①口口① |----|
口口口口 |②---|
口口口口 |----|
37
②⑤⑤② |①---|
口口④口 |②---|
口③口口 |③-④-|
口①①口 |--⑤-|
38
口口口口 |----|
口口口口 |----|
口口口口 |----|
口口口口 |----|
39
口口口口 |----|
①口②口 |①---|
④③口④ |②-③-|
口口口口 |--④-|
40
口口口口 |----|
①口口② |----|
口口口口 |----|
口口口口 |①-②-|
41
口②③口 |----|
口口口口 |①---|
口口口口 |②-③-|
④①①④ |--④-|
42
①口④① |--①-|
口③口口 |----|
②口口口 |--②-|
口口口口 |③-④-|
43
②④④② |--①-|
口口口口 |--②-|
口口口口 |--③-|
③①①③ |④---|
44
③口口③ |①---|
①③③① |--②-|
②①①② |----|
口②②口 |③---|
45
口①①口 |①---|
①口口① |----|
口口口口 |----|
口口口口 |----|
46
口⑤口口 |①-②-|
⑦①②⑦ |③-④-|
⑦④③⑦ |⑤-⑥-|
口口⑥口 |--⑦-|
47
①口口① |----|
口口口口 |----|
口口口口 |--①-|
口口口口 |----|
48
口⑤⑤口 |①-②-|
口口②口 |--③-|
④①口④ |--④-|
口③③口 |--⑤-|
49
口口口口 |----|
①口口① |----|
口口口口 |----|
口口口口 |①---|
50
口口口口 |①---|
口①①口 |--②-|
口②②口 |----|
③口口口 |③---|
51
口⑥口③ |①-②-|
口①⑤口 |--③-|
口口②④ |--④-|
口口口口 |⑤-⑥-|
52
口口口口 |①---|
口③③口 |--②-|
口②②口 |----|
口①①口 |③---|
53
②口口② |①---|
③口口④ |②---|
口口口口 |③---|
①口口① |④---|
54
口⑤口口 |①-②-|
⑦①②⑦ |③-④-|
⑦③④⑦ |⑤-⑥-|
口口⑥口 |--⑦-|
55
①口口① |----|
口口口口 |----|
口口口口 |--①-|
口口口口 |----|
56
口⑤⑤口 |①-②-|
口口②口 |--③-|
④①口④ |--④-|
口③③口 |--⑤-|
57
口口口口 |----|
①口口① |----|
口口口口 |----|
口口口口 |①---|
58
口口口口 |①---|
口①①口 |--②-|
口②②口 |----|
③口口口 |③---|
59
④口口③ |①-②-|
口①口口 |--③-|
口口②口 |--④-|
口口口口 |----|
60
⑥口⑥口 |①-②-|
④⑤④口 |--③-|
②③②口 |④---|
口①口口 |⑤-⑥-|
61
⑦⑤口③ |--①-|
⑥口④口 |②-③-|
口②口② |④-⑤-|
口口①口 |⑥-⑦-|


不確定度: 0

最終更新:2013年05月28日 15:12