ESCAPE
Moon Child

EXTREME

Level: 8
BPM: 165
Notes: 468

全程BPM在165附近飄忽不定
1
口口口口 |----|
口口口口 |----|
口口口口 |----|
口口口口 |----|
2
口①口口 |①---|
口口口口 |--②-|
口②口口 |----|
口口口口 |----|
3
口口口口 |①---|
口口①口 |--②-|
口口口口 |----|
口口②口 |----|
4
口①口口 |①---|
口口口口 |--②-|
口②口口 |----|
口口口口 |----|
5
口口口口 |①---|
④口①⑤ |--②-|
口③③口 |③-④-|
⑥口②口 |⑤-⑥-|
6
口口②② |①-②-|
口①口口 |--③-|
口口口口
口口口③

口口⑥⑥
口口口口
④口⑤口 |--④-|
口口口口 |⑤-⑥-|
7
口口④④ |--①-|
口①口口 |--②-|
口③口② |--③-|
口口口口 |--④-|
8
②口⑤口 |①-②-|
①口④口 |--③-|
口口口口 |--④-|
口口③口 |--⑤-|
9
③④口口 |--①-|
口口口口 |--②-|
口②①② |--③-|
⑤口口口 |④-⑤-|
10
口口⑥② |①-②-|
口①口口 |--③-|
④口口⑤ |--④-|
口口口③ |⑤-⑥-|
11
①④口口 |--①-|
口口口② |--②-|
③口口口 |--③-|
口口口口 |--④-|
12
⑤口⑤③ |①-②-|
口口口口 |--③-|
口②口④ |--④-|
口①口口 |--⑤-|
13
口⑤口口 |--①-|
口①⑥① |--②-|
口④③口 |③-④-|
口②②⑥ |⑤-⑥-|
14
口⑤⑤口 |①-②-|
④口口④ |--③-|
①③③② |--④-|
口口口口 |--⑤-|
15
口口口① |--①-|
口口①口 |--②-|
②口②①
口②口口

口③口口
③口④口
口③口口 |--③-|
口口口④ |--④-|
16
①口口② |①-②-|
口口口口 |--③-|
口③③口
口口口口

口口口⑤
口④⑤口
④口口口 |--④-|
口口口口 |--⑤-|
17
口口②口 |--①-|
①③口③ |--②-|
③口③② |--③-|
④①口口 |--④-|
18
口口口口 |①-②-|
口口③⑥ |--③-|
④①⑤口 |--④-|
口口口② |⑤-⑥-|
19
②口口② |--①-|
③④⑤口 |--②-|
口口口口 |--③-|
①口口① |④-⑤-|
20
②口①③ |①-②-|
口④⑤① |--③-|
②口①③ |--④-|
口④⑤口 |--⑤-|
21
口①②口 |--①-|
③口⑤④ |--②-|
口①②口 |--③-|
口口口⑤ |④-⑤-|
22
口口口⑥ |①-②-|
④口口⑤ |--③-|
①③③② |--④-|
④口口口 |⑤-⑥-|
23
①口①口 |--①-|
②①②口 |--②-|
③②③⑤ |--③-|
口③口④ |④-⑤-|
24
口口口① |--①-|
口口口口 |--②-|
口②②口
口口口口

口口口④
口③④口
③口口口 |--③-|
口口口口 |--④-|
25
④口②口 |--①-|
①③口③ |--②-|
③口③② |--③-|
口①口口 |--④-|
26
口口口② |①-②-|
口⑥③口 |--③-|
④①⑤口 |--④-|
口口口口 |⑤-⑥-|
27
口①口口 |①-②-|
②口口③ |③--④|
④口口口
口口口口

口口口口
⑦口口口
口⑤⑥口 |⑤-⑥-|
口⑤⑥口 |--⑦-|
28
⑤口③口 |①-②-|
口①②③ |--③-|
口口③口 |--④-|
④口口口 |--⑤-|
29
口口口① |--①-|
口②②口 |②---|
口②②口
口口口口

⑤⑤⑤⑤
口口口口
④口口④ |③-④-|
口③③口 |--⑤-|
30
口口口口 |①---|
②①④③ |②---|
口⑤口口 |③-④-|
口口口口 |⑤---|
31
口口口口 |①-②-|
口③口③ |③---|
③口③口
口②口①

⑥口口⑥
口口④口
口④口④ |④---|
⑤口④⑤ |⑤-⑥-|
32
口口口口 |①---|
②①口③ |②---|
口口④口 |③-④-|
口⑤口口 |⑤---|
33
口①口口 |----|
③②①口 |①---|
口①②③ |②-③-|
④口①④ |--④-|
34
口口口口 |----|
①口口① |----|
口①①口 |①---|
口口口口 |----|
35
①①①① |①---|
②②②② |②---|
③③③③ |③---|
④④④④ |④---|
36
口①①口 |①---|
口口口口 |----|
口口口口 |②---|
口②②口 |----|
37
①口口① |①---|
口②口口 |②---|
口口②口
口口口口

口口口⑤
口口口口
口口口口 |③-④-|
口口③④ |--⑤-|
38
口口口口 |----|
①口③② |①---|
口④口口 |②-③-|
口口口口 |④---|
39
口口①① |----|
口②口口 |①---|
口口③口 |②-③-|
④④口口 |--④-|
40
①口口② |①---|
⑥⑤⑤⑥ |②---|
⑥⑤⑤⑥ |③-④-|
④口口③ |⑤-⑥-|
41
口③②口 |----|
④口口口 |①---|
④口口口 |②-③-|
口口①口 |--④-|
42
②口口口 |--①-|
口③④① |----|
口口口① |--②-|
口口口口 |③-④-|
43
口④④口 |--①-|
③口口③ |--②-|
口①①口 |--③-|
②口口② |④---|
44
口口口口 |①-②-|
口口口口 |③-④-|
口④②③
口①口口

口口口口
口口⑤⑥
口口口口 |⑤-⑥-|
⑦⑦⑦⑦ |⑦---|
45
①①①① |①---|
口口口口 |②---|
口②②口
口口口口

口⑥⑥口
③口④⑤
口口口口 |③④⑤-|
口口口口 |⑥---|
46
②⑦⑥② |①-②-|
⑦④④⑦ |③-④-|
⑦③③⑦ |⑤-⑥-|
①⑤⑦① |--⑦-|
47
口口口口 |----|
口口口口 |----|
口口①口 |--①-|
口①口① |----|
48
②口口② |①-②-|
口口口口 |--③-|
①口口①
口③③口

⑤口口⑤
口④④口
⑤口口⑤ |--④-|
口口口口 |--⑤-|
49
口口①口 |----|
口口口① |----|
口口口口 |----|
口口口口 |①---|
50
口口口口 |①---|
①口③口 |--②-|
口①口② |----|
口口②口 |③---|
51
口口①口 |①-②-|
口②口② |--③-|
口③①口
口口口口

口⑥⑥口
④口⑤口
口口口口 |--④-|
⑤口④口 |⑤-⑥-|
52
口口口口 |①-②-|
口⑦⑤⑥ |③-④-|
口④②③ |⑤-⑥-|
口①口口 |⑦---|
53
③③③③ |①-②-|
⑤口口⑤ |③---|
①口口② |④---|
①④④② |⑤---|
54
②⑦⑦② |①-②-|
⑥④④⑦ |③-④-|
⑦③③⑤ |⑤-⑥-|
①⑦⑦① |--⑦-|
55
口口口口 |----|
①口①口 |----|
口①口① |--①-|
口口口口 |----|
56
口②口② |①-②-|
口口口口 |--③-|
口口口口
①③①③

口⑤口⑤
④口④口
口口口口 |--④-|
口口口口 |--⑤-|
57
①口①口 |----|
①口①口 |----|
口①口口 |----|
口口口口 |①---|
58
口①口① |①---|
口①口① |--②-|
口口①口 |----|
②③口② |③---|
59
④口口④ |①-②-|
口口口口 |--③-|
口口①② |--④-|
③口口③ |----|
60
口口②口 |①-②-|
①①口② |--③-|
③③②口
口口口口

口口⑥口
⑤⑤④⑥
口口⑥④ |④---|
口口④口 |⑤-⑥-|
61
口口⑦口 |--①-|
口口②⑥ |②-③-|
①①⑤② |④-⑤-|
③④②口 |⑥-⑦-|


不確定度: 0

最終更新:2013年05月28日 15:11