come again
m-flo

ADVANCED

Level: 7
BPM: 130
Notes: 341

1
口口口口 |----|
口口口口 |----|
口口口口 |----|
口口口口 |----|
2
口口口口 |----|
口口①口 |----|
口口口口 |----|
口口口口 |--①-|
3
口①⑦② |①--②|
口口口口 |--③-|
口⑤⑥③ |④-⑤⑥|
口口④口 |--⑦-|
4
②③口口 |①-②③|
口①口⑥ |--④-|
口⑦口⑤ |⑤⑥-⑦|
口口④口 |----|
5
口口②口 |①---|
③口口口 |②-③④|
口④口⑤ |--⑤-|
①口⑥口 |--⑥-|
6
口④②口 |①-②-|
口③①口 |③-④-|
口口口口
口口口口

口口口口
口口⑧⑦
口⑥口口 |⑤-⑥-|
口⑤口口 |⑦-⑧-|
7
口①⑦② |①--②|
口口口口 |--③-|
口⑤⑥③ |④-⑤⑥|
口口④口 |--⑦-|
8
②③口口 |①-②③|
口①口口 |--④-|
口口口口
口口④口

口⑧口口
口口口⑥
口⑦口⑤ |⑤⑥-⑦|
口口口口 |--⑧-|
9
口口②口 |①---|
③口口口 |②-③④|
口④口⑤ |--⑤-|
①口⑥口 |--⑥-|
10
口④②口 |①-②-|
⑦③①⑦ |③-④-|
口⑥口口 |⑤-⑥-|
口⑤口口 |⑦---|
11
口口口口 |①---|
口口③口 |----|
口②口① |②-③-|
口口①口 |----|
12
③①口口 |①---|
①口口口 |----|
口口口口 |②-③-|
口口口② |----|
13
口口口口 |①---|
口③口口 |--②-|
①口②口 |③---|
口①口口 |----|
14
④口①③ |①---|
口口口① |--②-|
口口口口 |③---|
②口口口 |④---|
15
口口口口 |①---|
口口③口 |----|
口②口① |②-③-|
口口①口 |----|
16
③①口口 |①---|
①口口口 |----|
口口口口 |②-③-|
口口口② |----|
17
口口口口 |①---|
口③口口 |--②-|
①口②口 |③---|
口①口口 |----|
18
口口①③ |①---|
口口口① |--②-|
④口口④ |③---|
②口口口 |④---|
19
②口口口 |①---|
口口口口 |----|
口①①口 |----|
口口口口 |--②-|
20
口口口口 |①-②-|
口①口口 |③-④-|
口⑥②口 |----|
⑤④口③ |⑤-⑥-|
21
口③口② |①-②-|
口口①口 |③---|
⑤④口⑦ |④-⑤-|
口⑥口口 |⑥-⑦-|
22
口①口口 |①--②|
口②①口 |--③-|
③口口④ |④---|
口口④口 |----|
23
口口口口 |----|
②口口② |--①-|
①口④① |②---|
口口口③ |③-④-|
24
②④③⑤ |①-②-|
口①⑥口 |③---|
口口口口 |--④-|
口口口口 |--⑤⑥|
25
口口口口 |①-②③|
⑤②口⑤ |-④-⑤|
口①③口
④口口④

口口口口
口口口口
口⑥口口 |----|
口口口口 |--⑥-|
26
口口口口 |①---|
口口口口 |②---|
②口①口
口②口口

口口口口
口⑤④口
口⑥⑥③ |③-④-|
口口③口 |⑤-⑥-|
27
口口口口 |----|
口口口③ |①---|
口口口② |②---|
口口口① |③---|
28
口口②① |①---|
口口③口 |②---|
口口④口 |③---|
口口⑤口 |④-⑤-|
29
口口口③ |①-②-|
口口②口 |③---|
⑤口口① |----|
④口口口 |④-⑤-|
30
④③口口 |①-②③|
①②口口 |--④-|
⑤⑦口口 |⑤-⑥⑦|
口⑥口口 |----|
31
口口口口 |----|
口口口③ |①---|
口口口② |②---|
口口口① |③---|
32
口口②① |①---|
口口③口 |②---|
口口④口 |③---|
口口⑤口 |④-⑤-|
33
口口口③ |①-②-|
口口②口 |③---|
④口口① |----|
口口口口 |--④-|
34
④③口口 |①-②③|
①②口口 |--④-|
口口口口
口口口口

口口口口
口⑦口⑨
⑤口口口 |⑤-⑥⑦|
口⑥口⑧ |⑧-⑨-|
35
②口②口 |①---|
口口口口 |②--③|
口①口口
口③①口

口口口口
口⑤口口
⑥⑦④口 |④⑤-⑥|
口口口口 |--⑦-|
36
口①③① |①---|
口⑥⑦⑥ |②--③|
口口⑤口 |④⑤-⑥|
②④②口 |--⑦-|
37
口②口② |①---|
⑧⑤口⑧ |②--③|
⑥口④⑦ |④⑤-⑥|
①③①口 |-⑦-⑧|
38
口①口① |-①--|
口口口口 |--②-|
口口口口
口②口②

③④③④
⑤口口口
口口口口 |③--④|
口口口口 |--⑤-|
39
②口②口 |①---|
口口口口 |②--③|
口口口①
口③①口

口口口口
口⑤口口
⑥⑦④口 |④⑤-⑥|
口口⑥口 |--⑦-|
40
口①③① |①---|
口⑥⑦⑥ |②--③|
口口⑤口 |④⑤-⑥|
②④②口 |--⑦-|
41
口②口② |①---|
口⑤口口 |②--③|
⑥口④⑦ |④⑤-⑥|
①③①口 |--⑦-|
42
①①①① |①--②|
②③②⑥ |--③-|
口口口口 |④---|
④口口⑤ |⑤-⑥-|
43
②口②口 |①---|
口口口口 |②--③|
口①口口
口③①口

口口口口
口⑤口口
⑥⑦④口 |④⑤-⑥|
口口⑥口 |--⑦-|
44
口①③① |①---|
口⑥⑦⑥ |②--③|
口口⑤口 |④⑤-⑥|
②④②口 |--⑦-|
45
口②口② |①---|
⑧⑤口⑧ |②--③|
⑥口④⑦ |④⑤-⑥|
①③①口 |-⑦-⑧|
46
口①口① |-①--|
口口口口 |--②-|
口口口口
②口口②

③④③④
⑤口口口
口口口口 |③--④|
口口口口 |--⑤-|
47
②口②口 |①---|
口口口口 |②--③|
口口口①
口③①口

口口口口
口⑤口口
⑥⑦④口 |④⑤-⑥|
口口⑥口 |--⑦-|
48
口①③① |①---|
口⑥⑦⑥ |②--③|
口口⑤口 |④⑤-⑥|
②④②口 |--⑦-|
49
口②口② |①---|
口⑤口口 |②--③|
⑥口④⑦ |④⑤-⑥|
①③①口 |--⑦-|
50
①①①① |①--②|
②③②口 |--③-|
口口口口 |④---|
④口口④ |----|


不确定度: 0

不確定度: 0

最終更新:2013年05月27日 20:11