come again
m-flo

EXTREME

Level: 8
BPM: 130
Notes: 489

1
口口口口 |----|
口口口口 |----|
口口口口 |----|
口口口口 |----|
2
口口口口 |----|
口口口口 |----|
口①口口 |----|
口口口口 |--①-|
3
口④①口 |①--②|
口口口② |--③-|
⑤⑥③口 |④-⑤⑥|
口口⑦口 |--⑦-|
4
口口口口 |①-②③|
口①口口 |--④-|
口口③②
口④口口

口口口⑦
⑤⑥⑦口
口口口口 |⑤⑥-⑦|
口口口口 |----|
5
②口口口 |①---|
口口③口 |②-③④|
口④口口 |-⑤--|
⑥①①⑤ |--⑥-|
6
口口口② |①-②-|
④口②① |③-④-|
③④①口
口③口口

口口口口
口⑦⑧口
口口口口 |⑤-⑥-|
⑥口口⑤ |⑦-⑧-|
7
①口口① |①--②|
口口口口 |--③-|
②口口②
口③③口

⑦口⑥口
口口口口
口⑤④口 |④-⑤⑥|
口口口口 |--⑦-|
8
⑥口口⑧ |①-②③|
⑤③口④ |--④-|
口口口⑦ |⑤⑥-⑦|
口①②口 |--⑧-|
9
②①①口 |①---|
口口③口 |②-③④|
口④口口 |-⑤--|
⑥口口⑤ |--⑥-|
10
④口口口 |①-②-|
③④口② |③-④-|
口③②①
口口①口

口口口口
口口口口
口口口口 |⑤-⑥-|
⑥⑦⑦⑤ |⑦---|
11
②③④口 |①②③④|
⑩⑦①口 |-⑤⑥-|
⑪①⑦口 |⑦-⑧⑨|
⑧⑨⑥⑤ |-⑩⑪-|
12
②③④⑦ |①②③④|
⑩⑥①口 |--⑤-|
⑪①⑥⑨ |⑥-⑦-|
⑤口口⑧ |⑧⑨⑩⑪|
13
②③④口 |①②③④|
⑩⑦①口 |-⑤⑥-|
⑪①⑦口 |⑦-⑧⑨|
⑧⑨⑥⑤ |-⑩⑪-|
14
②③④⑦ |①②③④|
⑩⑥①口 |--⑤-|
⑪①⑥⑨ |⑥-⑦-|
⑤口口⑧ |⑧⑨⑩⑪|
15
②③④口 |①②③④|
⑩⑦①口 |-⑤⑥-|
⑪①⑦口 |⑦-⑧⑨|
⑧⑨⑥⑤ |-⑩⑪-|
16
②③④⑦ |①②③④|
⑩⑥①口 |--⑤-|
⑪①⑥⑨ |⑥-⑦-|
⑤口口⑧ |⑧⑨⑩⑪|
17
②③④口 |①②③④|
⑩⑦①口 |-⑤⑥-|
⑪①⑦口 |⑦-⑧⑨|
⑧⑨⑥⑤ |-⑩⑪-|
18
②③④口 |①②③④|
口⑤①口 |--⑤-|
⑦①⑤⑦ |⑥---|
口⑥⑥口 |⑦---|
19
④①口口 |①---|
口口①口 |----|
口口口口 |②-③-|
②③③② |--④-|
20
口口④口 |①-②-|
口①口③ |③-④-|
口口②口
口口口口

口口口⑤
口⑦口口
⑥口口口 |--⑤-|
口⑥口口 |⑥-⑦-|
21
口②口口 |①-②-|
口口①口 |③---|
口①③口
口口口③

口口口口
口口口口
口⑥口④ |④-⑤-|
⑦口⑤口 |⑥-⑦-|
22
①⑧⑦⑥ |①--②|
口①②口 |--③-|
口③④口 |④---|
⑤口口④ |⑤⑥⑦⑧|
23
①口口⑥ |①②③④|
②⑤⑧口 |--⑤-|
③口⑤⑦ |⑥---|
口④⑦口 |⑦-⑧-|
24
口⑥②⑤ |①-②-|
④①⑦口 |③-④-|
口③①口 |--⑤-|
③口口口 |--⑥⑦|
25
⑤口口口 |①-②③|
口④口口 |-④-⑤|
③③口①
口口②口

口口口口
口口口口
口⑥口口 |----|
⑥口口口 |--⑥-|
26
口口口口 |①---|
口②④③ |②---|
⑤⑥②① |③-④-|
口口①口 |⑤-⑥-|
27
①②⑦⑦ |①②③④|
③④口⑥ |⑤---|
口口⑤口 |⑥---|
口口口⑤ |⑦---|
28
口口③⑤ |①---|
口口①③ |②---|
口口口② |③---|
口口②④ |④-⑤-|
29
口口口口 |①-②-|
⑤⑤①口 |③---|
口口③② |----|
④④口口 |④-⑤-|
30
④①口口 |①-②③|
口⑤口口 |--④-|
③②口口 |⑤-⑥⑦|
⑥⑦口口 |----|
31
口口③③ |----|
口口口② |①---|
口口①口 |②---|
口口口① |③---|
32
口口③⑤ |①---|
口口①③ |②---|
口口口② |③---|
口口②④ |④-⑤-|
33
口口口口 |①-②-|
口口①口 |③---|
口口③② |----|
④④口口 |--④-|
34
①⑥口⑫ |①-②③|
⑧③口⑪ |--④⑤|
④②口⑩ |⑥-⑦⑧|
⑤⑦口⑨ |⑨⑩⑪⑫|
35
②口②口 |①---|
口口口口 |②--③|
口①口口
口③①口

口口口口
口⑤口口
⑥⑦④口 |④⑤-⑥|
口口⑥口 |--⑦-|
36
口①③① |①---|
口口①口 |②--③|
口口口①
②口②口

口口口口
口⑥⑦⑥
口口⑤口 |④⑤-⑥|
口④口口 |--⑦-|
37
口②口② |①---|
①口口口 |②--③|
口①口口
①③①口

口⑧口口
口⑤⑧口
⑥口④⑦ |④⑤-⑥|
口口口口 |-⑦-⑧|
38
口口口① |-①--|
①口口口 |--②-|
口口口口
②口口②

③④③④
⑤③口口
③口④口 |③--④|
口口口口 |--⑤-|
39
②口②口 |①---|
口口①口 |②--③|
口①口①
口③①口

口口口口
口⑤口口
⑥⑦④口 |④⑤-⑥|
口口⑥口 |--⑦-|
40
口①③① |①---|
口口①口 |②--③|
口口口①
②口②口

口口口口
口⑥⑦⑥
口口⑤口 |④⑤-⑥|
口④口口 |--⑦-|
41
口②口② |①---|
①⑤口口 |②--③|
⑥①④⑦ |④⑤-⑥|
①③①口 |--⑦-|
42
①①①① |①--②|
②③②口 |--③-|
口口口口
口口③口

口口口⑧
口口口⑦
口口口⑥ |④---|
④口口⑤ |⑤⑥⑦⑧|
43
②口②口 |①---|
口口口口 |②--③|
口①口口
口③①口

口口口口
口⑤口口
⑥⑦④口 |④⑤-⑥|
口口⑥口 |--⑦-|
44
口①③① |①---|
口口①口 |②--③|
口口口①
②口②口

口口口口
口⑥⑦⑥
口口⑤口 |④⑤-⑥|
口④口口 |--⑦-|
45
口②口② |①---|
①口口口 |②--③|
口①口口
①③①口

口⑧口口
口⑤⑧口
⑥口④⑦ |④⑤-⑥|
口口口口 |-⑦-⑧|
46
口口口① |-①--|
①口口口 |--②-|
口口口口
②口口②

③④③④
⑤③口口
③口④口 |③--④|
口口口口 |--⑤-|
47
②口②口 |①---|
口口①口 |②--③|
口①口①
口③①口

口口口口
口⑤口口
⑥⑦④口 |④⑤-⑥|
口口⑥口 |--⑦-|
48
口①③① |①---|
口口①口 |②--③|
口口口①
②口②口

口口口口
口⑥⑦⑥
口口⑤口 |④⑤-⑥|
口④口口 |--⑦-|
49
口②口② |①---|
①⑤口口 |②--③|
⑥①④⑦ |④⑤-⑥|
①③①口 |--⑦-|
50
①①①① |①--②|
②③②③ |--③-|
口口口口 |④---|
④口口④ |----|


不確定度: 0

最終更新:2013年05月27日 20:09