Calling
紗羅マリー

ADVANCED

Level: 7
BPM: 155
Notes: 475

1
口口口口 |----|
口口口口 |----|
口口口口 |----|
口口口口 |----|
2
口口口口 |①---|
口口口口 |②---|
口③④口 |③---|
口①②口 |④---|
3
口口口口 |①---|
①口口① |----|
口口口口 |----|
口口口口 |----|
4
口口口口 |①---|
口口口口 |----|
口口口口 |----|
①口口① |----|
5
口口口口 |①---|
口口口口 |----|
口①①口 |----|
口口口口 |----|
6
口口口口 |①---|
口①①口 |----|
口口口口 |----|
口口口口 |----|
7
口口口口 |①---|
口口口口 |----|
口①①口 |----|
口口口口 |----|
8
口口口口 |①---|
口①①口 |----|
口口口口 |----|
口口口口 |----|
9
口口口口 |①---|
①口口① |----|
②口口② |②---|
口口口口 |----|
10
口口口口 |①---|
①口口① |----|
②口口② |②---|
口口口口 |----|
11
口口口口 |①---|
①口口① |----|
②口口② |②---|
口口口口 |----|
12
口①①口 |①---|
口口口口 |----|
口口口口
口口口口

口④口口
口口⑤口
口口③口 |②-③-|
口②口口 |④-⑤-|
13
口⑤⑤口 |①-②-|
③⑥⑦③ |③-④-|
①②口① |⑤---|
口口④口 |⑥-⑦-|
14
②②④④ |①---|
口口口口 |②---|
口口口口 |③---|
①①③③ |④---|
15
口口口口 |①-②-|
①②⑦③ |③-④-|
⑤⑥口⑤ |⑤---|
口口④口 |⑥-⑦-|
16
①①③③ |①---|
口口口口 |②---|
口口口口 |③---|
②②④④ |④---|
17
口口口口 |①-②-|
⑤⑥②⑤ |③-④-|
①④⑦① |⑤---|
口③口口 |⑥-⑦-|
18
②②④④ |①---|
口口口口 |②---|
口口口口 |③---|
①①③③ |④---|
19
③口口③ |①---|
①口口① |②---|
口口口口 |③---|
②④④② |④---|
20
口④④口 |①---|
口①②口 |②---|
口②①口 |③---|
口③③口 |④---|
21
口⑤⑤口 |①-②-|
③⑥⑦③ |③-④-|
①②口① |⑤---|
口口④口 |⑥-⑦-|
22
②②④④ |①---|
口口口口 |②---|
口口口口 |③---|
①①③③ |④---|
23
口口口口 |①-②-|
①②⑦③ |③-④-|
⑤⑥口⑤ |⑤---|
口口④口 |⑥-⑦-|
24
①①③③ |①---|
口口口口 |②---|
口口口口 |③---|
②②④④ |④---|
25
口口口口 |①-②-|
⑤⑥②⑤ |③-④-|
①④⑦① |⑤---|
口③口口 |⑥-⑦-|
26
②②④④ |①---|
口口口口 |②---|
口口口口 |③---|
①①③③ |④---|
27
③口口③ |①---|
①口口① |②---|
口口口口 |③---|
②④④② |④---|
28
口口口口 |①---|
口①②口 |②---|
④②①④ |③---|
③口口③ |④---|
29
①口口① |①---|
口口口② |②---|
口口口③ |③---|
口口口④ |④---|
30
④口口口 |①---|
③口口口 |②---|
②口口口 |③---|
①口口口 |④---|
31
口口口口 |①---|
④③②① |②---|
口口口口 |③---|
口口口口 |④---|
32
口口口口 |①---|
口口口④ |②---|
①②③口 |③---|
口口③口 |④---|
33
①①口口 |①---|
②口口口 |②---|
③口口口 |③---|
④口口口 |④---|
34
口口口④ |①---|
口口口③ |②---|
口口口② |③---|
口口口① |④---|
35
口口口口 |①---|
①②③④ |②---|
口口口口 |③---|
口口口口 |④---|
36
口口口口 |①---|
口口口口 |②---|
④③②① |③---|
口口口口 |④---|
37
口口口口 |①---|
⑤④口⑤ |--②-|
口③口口 |③-④-|
①②口① |--⑤-|
38
口口口口 |----|
口口①口 |①-②-|
④口②口 |--③-|
口③口口 |--④-|
39
口口口口 |①---|
口②口① |②---|
口口口③ |③---|
口④口口 |④---|
40
①口口口 |①-②-|
口②口口 |--③-|
口口口③ |④---|
口口④口 |----|
41
口口口口 |①---|
⑤④口⑤ |--②-|
口③口口 |③-④-|
①②口① |--⑤-|
42
④口口④ |----|
口口①口 |①-②-|
口口②口 |--③-|
口③口口 |--④-|
43
④①口④ |----|
口口②口 |----|
口③口口 |①-②-|
口口口口 |③-④-|
44
口口口口 |----|
口①口口 |①-②-|
口③②口 |----|
口口④口 |③-④-|
45
口口口口 |----|
④③口④ |--①-|
口②口口 |②-③-|
口①口口 |--④-|
46
口口口口 |----|
口口①口 |①-②-|
④口②口 |--③-|
口③口口 |--④-|
47
口口口口 |①---|
口②口① |②---|
口口口③ |③---|
口④口口 |④---|
48
①口口口 |①-②-|
口②口口 |--③-|
口口口③ |④---|
口口④口 |----|
49
口口口口 |①---|
⑤④口⑤ |--②-|
口③口口 |③-④-|
①②口① |--⑤-|
50
口口①口 |----|
口②口口 |①-②-|
口口口口 |--③-|
④口③④ |--④-|
51
口②②口 |①---|
①口口① |----|
④口口③ |②---|
④口口③ |③-④-|
52
口口口口 |----|
口②②口 |----|
口①①口 |①---|
口口口口 |②---|
53
①①①① |①---|
口口口口 |--②-|
口口口口 |③---|
口②③口 |----|
54
口口口口 |①---|
①①①① |--②-|
口口口口 |③---|
口②③口 |----|
55
口口口口 |①---|
口口口口 |--②-|
①①①① |③---|
口②③口 |----|
56
口口口口 |①---|
①口口① |----|
口口③口 |②---|
口②口口 |③---|
57
①①①① |①---|
口②口口 |②---|
口口口口 |③---|
口③③口 |----|
58
①①①① |①---|
口口②口 |②---|
口口口口 |③---|
口③③口 |----|
59
口口口口 |①---|
①①①① |②---|
口②口口 |③---|
口③③口 |----|
60
口⑨口口 |①-②-③-|
⑤口⑩⑥ |④-⑤-⑥-|
③口⑧④ |⑦-⑧-|
①⑦口② |⑨-⑩-|
61
口⑤⑤口 |①-②-|
③⑥⑦③ |③-④-|
①②口① |⑤---|
口口④口 |⑥-⑦-|
62
②②④④ |①---|
口口口口 |②---|
口口口口 |③---|
①①③③ |④---|
63
口口口口 |①-②-|
①②⑦③ |③-④-|
⑤⑥口⑤ |⑤---|
口口④口 |⑥-⑦-|
64
①①③③ |①---|
口口口口 |②---|
口口口口 |③---|
②②④④ |④---|
65
口口口口 |①-②-|
⑤⑥②⑤ |③-④-|
①④⑦① |⑤---|
口③口口 |⑥-⑦-|
66
②②④④ |①---|
口口口口 |②---|
口口口口 |③---|
①①③③ |④---|
67
③口口③ |①---|
①口口① |②---|
口口口口 |③---|
②④④② |④---|
68
口④④口 |①---|
口①②口 |②---|
口②①口 |③---|
口③③口 |④---|
69
口⑤⑤口 |①-②-|
③⑥⑦③ |③-④-|
①②口① |⑤---|
口口④口 |⑥-⑦-|
70
②②④④ |①---|
口口口口 |②---|
口口口口 |③---|
①①③③ |④---|
71
口口口口 |①-②-|
①②⑦③ |③-④-|
⑤⑥口⑤ |⑤---|
口口④口 |⑥-⑦-|
72
①①③③ |①---|
口口口口 |②---|
口口口口 |③---|
②②④④ |④---|
73
口口口口 |①-②-|
⑤⑥②⑤ |③-④-|
①④⑦① |⑤---|
口③口口 |⑥-⑦-|
74
②②④④ |①---|
口口口口 |②---|
口口口口 |③---|
①①③③ |④---|
75
③口口③ |①---|
①口口① |②---|
口口口口 |③---|
②④④② |④---|
76
口口口口 |①---|
口①②口 |②---|
④②①④ |③---|
③口口③ |④---|
77
①①①① |①---|
口口口口 |----|
口口口口 |----|
口口口口 |----|


不確定度: 0

最終更新:2013年05月27日 20:06